Generation Trance
Vote for GT  at The DJ List! Vote for GT and Project C at The DJ List! Vote for Project C  at The DJ List!
 FAQFAQ   SearchSearch   Chat   MemberlistMemberlist   UsergroupsUsergroups   RegisterRegister 
 ProfileProfile   Log in to check your private messagesLog in to check your private messages   Log inLog in 
GT vs Project C- Live @ Club 424 (March 12 2005)
Goto page Previous  1, 2, 3, 4, 5  Next
 
Post new topic   Reply to topic    Generation Trance Forum Index -> GT vs Project C (past - 2005)
View previous topic :: View next topic  

Rate this Mix!
Ownage!
64%
 64%  [ 75 ]
Pretty Good!
23%
 23%  [ 27 ]
Okie Dokie!
6%
 6%  [ 8 ]
Not Bad!
1%
 1%  [ 2 ]
Poopage!
3%
 3%  [ 4 ]
Total Votes : 116

Author Message
Socalpunk
Poster


Joined: 11 Jan 2005
Posts: 9
Location: San Diego

usa.gif
PostPosted: Mon May 23, 2005 12:03 pm    Post subject: Reply with quote

djGT wrote:
DjDarkside wrote:
How about if you get a spot at avalon.. would that be enough?


sure, let us know when you have something lined up for us! Twisted Evil Twisted Evil Twisted Evil Twisted Evil

Come do more San Diego stuff!
Back to top
View user's profile Send private message Visit poster's website AIM Address MSN Messenger
djGT
Da Man


Joined: 22 Jul 2004
Posts: 6613
Location: The OC

usa.gif
PostPosted: Mon May 23, 2005 1:43 pm    Post subject: Reply with quote

Socalpunk wrote:
djGT wrote:
DjDarkside wrote:
How about if you get a spot at avalon.. would that be enough?


sure, let us know when you have something lined up for us! Twisted Evil Twisted Evil Twisted Evil Twisted Evil

Come do more San Diego stuff!

we might be going back to a gig we did in downtown SD, more details to come when I get them! Twisted Evil
_________________
VOT 149 (September 2017) + Rene Ablaze
Voices Of Summer (Dreamer + Dreaming)

Mixcloud :: Facebook :: Twitter :: MySpace :: TRACKER - Please help seed the torrents, especially those with zero seeders!
Back to top
View user's profile Send private message Visit poster's website AIM Address
SASHA
Poster


Joined: 20 Nov 2004
Posts: 20

blank.gif
PostPosted: Thu May 26, 2005 9:19 am    Post subject: Reply with quote

You guys absolutely KILLED IT !!!! amazing **** set, but the sound is shit !!!

Amiel-Love Song, ORGASMIC !!!
Back to top
View user's profile Send private message
chained_buddha
Poster


Joined: 28 Feb 2005
Posts: 3

south_korea.gif
PostPosted: Fri May 27, 2005 2:18 pm    Post subject: aHEM Reply with quote

SASHA wrote:
You guys absolutely KILLED IT !!!! amazing **** set, but the sound is shit !!!

Amiel-Love Song, ORGASMIC !!!


I agree. No matter how you try it...aural sex, audiogasm...it just IS.

Twisted Evil
Back to top
View user's profile Send private message AIM Address
Brantoc
Poster


Joined: 21 Aug 2004
Posts: 7
Location: Dallas Texas

usa.gif
PostPosted: Tue May 31, 2005 8:23 pm    Post subject: Reply with quote

download linkage no workage.
Back to top
View user's profile Send private message Yahoo Messenger MSN Messenger
Bert502
Da Fan


Joined: 16 Mar 2005
Posts: 37
Location: Guatemala

guatemala.gif
PostPosted: Thu Jun 02, 2005 8:22 am    Post subject: HELP Reply with quote

Is there an easier way to get this mix? I tried the http download and it says the link has been moved or something. Is there a torrent file for this or maybe another URL location for the file????? I can tell this is a good mix and I still havent been able to DL it. If anyone can help me here....

By the way....this website RULES!!!! Very Happy
Back to top
View user's profile Send private message Yahoo Messenger MSN Messenger
Bert502
Da Fan


Joined: 16 Mar 2005
Posts: 37
Location: Guatemala

guatemala.gif
PostPosted: Tue Jun 07, 2005 10:48 am    Post subject: Broken link.... Reply with quote

Does anyone know when this link is going to work again????? Question Confused
Back to top
View user's profile Send private message Yahoo Messenger MSN Messenger
pipedowndjh
Da Seed


Joined: 12 Jan 2005
Posts: 1560
Location: West SIDE WA!

usa.gif
PostPosted: Tue Jun 07, 2005 4:01 pm    Post subject: Re: Broken link.... Reply with quote

Bert502 wrote:
Does anyone know when this link is going to work again????? Question Confused


pm me and ill send...ill need avlid email adress for ya too
Back to top
View user's profile Send private message Send e-mail AIM Address MSN Messenger
incognito
Banned Leecher


Joined: 16 Feb 2005
Posts: 1754

blank.gif
PostPosted: Wed Jun 08, 2005 6:17 am    Post subject: Re: HELP Reply with quote

Bert502 wrote:
Is there an easier way to get this mix? I tried the http download and it says the link has been moved or something. Is there a torrent file for this or maybe another URL location for the file????? I can tell this is a good mix and I still havent been able to DL it. If anyone can help me here....

By the way....this website RULES!!!! Very Happy


Yes generation trance is a great place to be. I have been here almost 6 months now I think, yeah around there, and it feels like an internet home to me in a way.
Back to top
View user's profile Send private message
MM021
Poster


Joined: 09 Sep 2005
Posts: 2

pakistan.gif
PostPosted: Fri Sep 09, 2005 10:31 am    Post subject: good Reply with quote

thnx for sharing must dl
_________________
:: EVERY ONE RULES IN THE WORLD ::
Back to top
View user's profile Send private message Yahoo Messenger
biker84
Poster


Joined: 21 Aug 2005
Posts: 2

italy.gif
PostPosted: Sun Sep 18, 2005 2:04 am    Post subject: Reply with quote

Very good!
And the file cue?
Back to top
View user's profile Send private message
akasoz
Poster


Joined: 21 Jul 2005
Posts: 11

usa.gif
PostPosted: Tue Sep 20, 2005 11:05 pm    Post subject: Reply with quote

I'm having a weird skipping sound in the beat... around 30 mins in (between 30 and 32 mins for sure). Anyone else experiencing a little oddness there? Or did someone spill something on the decks? Razz
Back to top
View user's profile Send private message AIM Address
djGT
Da Man


Joined: 22 Jul 2004
Posts: 6613
Location: The OC

usa.gif
PostPosted: Wed Sep 21, 2005 3:26 pm    Post subject: Reply with quote

akasoz wrote:
I'm having a weird skipping sound in the beat... around 30 mins in (between 30 and 32 mins for sure). Anyone else experiencing a little oddness there? Or did someone spill something on the decks? Razz


Our decks skipped twice during this track! Embarassed

04. Leama & Moor - Complex Synth Problems
_________________
VOT 149 (September 2017) + Rene Ablaze
Voices Of Summer (Dreamer + Dreaming)

Mixcloud :: Facebook :: Twitter :: MySpace :: TRACKER - Please help seed the torrents, especially those with zero seeders!
Back to top
View user's profile Send private message Visit poster's website AIM Address
bats041
Poster


Joined: 24 Jan 2005
Posts: 8
Location: Boston

usa.gif
PostPosted: Fri Sep 30, 2005 9:42 am    Post subject: Reply with quote

Is it okay to make your own cue file? If so, I just made one. I don't know if there's any legal stuff involved. I hope not. These times are the best I could simplify them to:

PERFORMER "GT vs Project C"
TITLE "Live @ Club 424 (March 12 2005)"


TRACK 01 AUDIO
TITLE "Dido - Sand In My Shoes (Steve Lawlers We Love Ibiza Mix)"
INDEX 01 00:00:00
TRACK 02 AUDIO
TITLE "Amiel - Love Song (Scumfrog Club Mix)"
INDEX 02 08:19:00
TRACK 03 AUDIO
TITLE "IIO - Runaway (Scotty Marz Buzz Fiend Mix)"
INDEX 03 16:01:00
TRACK 04 AUDIO
TITLE "Leama & Moor - Complex Synth Problems"
INDEX 04 25:56:00
TRACK 05 AUDIO
TITLE "Nelly Furtado - Powerless (Leama & Moore Dub Mix)"
INDEX 05 32:06:00
TRACK 06 AUDIO
TITLE "Justin Timberlake - Rock Your Body (Sander Kleinenberg Mix)"
INDEX 06 38:03:00
TRACK 07 AUDIO
TITLE "Ashlee Simpson - Pieces Of Me (29 Plams Vocal Mix)"
INDEX 07 44:01:00
TRACK 08 AUDIO
TITLE "Yellow Blackboard - Superfly (Andy Moor Mix)"
INDEX 08 50:29:00
TRACK 09 AUDIO
TITLE "Departure - She Turns (Markus Schulz Remix)"
INDEX 09 56:42:00
TRACK 10 AUDIO
TITLE "DT8 Project ft. Andrea Britton - Winter (Max Graham Sidechained Mix)"
INDEX 10 63:39:00
TRACK 11 AUDIO
TITLE "Yes - Owner Of The Lonely Heart (Max Graham Sidechain Mix)"
INDEX 11 70:36:00
TRACK 12 AUDIO
TITLE "Matthew Dekay vs Beastie Boys - Intergalatic"
INDEX 12 77:02:00
TRACK 13 AUDIO
TITLE "Serge Devant Feat Jan Johnston - Transparent (Outback Mix)"
INDEX 13 84:00:00
TRACK 14 AUDIO
TITLE "Britney Spears - Everytime (Scumfrog Vocal Mix)"
INDEX 14 89:58:00
TRACK 15 AUDIO
TITLE "X-Press 2 - Lazy"
INDEX 15 97:25:00
Back to top
View user's profile Send private message
dre_day
Poster


Joined: 31 Jul 2005
Posts: 11
Location: Canada

canada.gif
PostPosted: Thu Oct 20, 2005 4:56 pm    Post subject: Reply with quote

thanks for the share
Back to top
View user's profile Send private message MSN Messenger
[XFG] John
Da Trance-a-nator


Joined: 19 Oct 2005
Posts: 219
Location: Chicago

usa.gif
PostPosted: Sat Oct 29, 2005 4:13 am    Post subject: Reply with quote

Gotta Love Live Sets. Keep up the good work Very Happy
Back to top
View user's profile Send private message Send e-mail Visit poster's website AIM Address Yahoo Messenger MSN Messenger
yew
Poster


Joined: 30 Oct 2005
Posts: 60

blank.gif
PostPosted: Sat Nov 05, 2005 9:12 pm    Post subject: Reply with quote

djGT wrote:
TeckniX wrote:
Sounds awesome.. anyway you could help us create a little .cue file so that I can have this laid-out properly on a cd, and not just one track??
Yeah I suck at this right now.. and guessing time isn't my fortee..

Thanks.


the mix is almost 2 hours, will not fit on a CD unless split up in 2 parts, which is too much work for me. Laughing

the reason why I want the cue sheets is because that way I can jump to the next song and also know what song is playing...all you need is an audio player that supports cue sheets like foobar...I don't care about burning the cd...
Back to top
View user's profile Send private message
djGT
Da Man


Joined: 22 Jul 2004
Posts: 6613
Location: The OC

usa.gif
PostPosted: Sat Nov 05, 2005 9:17 pm    Post subject: Reply with quote

yew wrote:
djGT wrote:
TeckniX wrote:
Sounds awesome.. anyway you could help us create a little .cue file so that I can have this laid-out properly on a cd, and not just one track??
Yeah I suck at this right now.. and guessing time isn't my fortee..

Thanks.


the mix is almost 2 hours, will not fit on a CD unless split up in 2 parts, which is too much work for me. Laughing

the reason why I want the cue sheets is because that way I can jump to the next song and also know what song is playing...all you need is an audio player that supports cue sheets like foobar...I don't care about burning the cd...

will keep this in mind for our 3 1/2 hour mix coming soon. Wink
_________________
VOT 149 (September 2017) + Rene Ablaze
Voices Of Summer (Dreamer + Dreaming)

Mixcloud :: Facebook :: Twitter :: MySpace :: TRACKER - Please help seed the torrents, especially those with zero seeders!
Back to top
View user's profile Send private message Visit poster's website AIM Address
yew
Poster


Joined: 30 Oct 2005
Posts: 60

blank.gif
PostPosted: Sun Nov 06, 2005 1:20 pm    Post subject: Reply with quote

ok, here is the cue sheet that actually works:

Quote:
PERFORMER "GT vs Project C"
TITLE "Live @ Club 424 (March 12 2005)"
FILE "GT_vs_Project_C_-_Live_at_Club424_Beverly_Hills_(March_12_2005).mp3" MP3
TRACK 01 AUDIO
TITLE "Dido - Sand In My Shoes (Steve Lawlers We Love Ibiza Mix)"
INDEX 01 00:00:00
TRACK 02 AUDIO
TITLE "Amiel - Love Song (Scumfrog Club Mix)"
INDEX 01 08:19:00
TRACK 03 AUDIO
TITLE "IIO - Runaway (Scotty Marz Buzz Fiend Mix)"
INDEX 01 16:01:00
TRACK 04 AUDIO
TITLE "Leama & Moor - Complex Synth Problems"
INDEX 01 25:56:00
TRACK 05 AUDIO
TITLE "Nelly Furtado - Powerless (Leama & Moore Dub Mix)"
INDEX 01 32:06:00
TRACK 06 AUDIO
TITLE "Justin Timberlake - Rock Your Body (Sander Kleinenberg Mix)"
INDEX 01 38:03:00
TRACK 07 AUDIO
TITLE "Ashlee Simpson - Pieces Of Me (29 Plams Vocal Mix)"
INDEX 01 44:01:00
TRACK 08 AUDIO
TITLE "Yellow Blackboard - Superfly (Andy Moor Mix)"
INDEX 01 50:29:00
TRACK 09 AUDIO
TITLE "Departure - She Turns (Markus Schulz Remix)"
INDEX 01 56:42:00
TRACK 10 AUDIO
TITLE "DT8 Project ft. Andrea Britton - Winter (Max Graham Sidechained Mix)"
INDEX 1 63:39:00
TRACK 11 AUDIO
TITLE "Yes - Owner Of The Lonely Heart (Max Graham Sidechain Mix)"
INDEX 1 70:36:00
TRACK 12 AUDIO
TITLE "Matthew Dekay vs Beastie Boys - Intergalatic"
INDEX 1 77:02:00
TRACK 13 AUDIO
TITLE "Serge Devant Feat Jan Johnston - Transparent (Outback Mix)"
INDEX 1 84:00:00
TRACK 14 AUDIO
TITLE "Britney Spears - Everytime (Scumfrog Vocal Mix)"
INDEX 1 89:58:00
TRACK 15 AUDIO
TITLE "X-Press 2 - Lazy"
INDEX 1 97:25:00
Back to top
View user's profile Send private message
dj_faria's_dream
Da Fan


Joined: 07 Feb 2005
Posts: 485
Location: Norway

norway.gif
PostPosted: Fri Nov 25, 2005 2:25 am    Post subject: Reply with quote

Airscape2 wrote:
w0000000000000ttt....... Cool

Getting it right now !


Me too!! I think I have downloaded it before, but just to be sure I do it again! Love your way of mixing!!
_________________
Please forgive me, if I write anything wrong..

Best regards from Norway!!
Back to top
View user's profile Send private message Send e-mail
CyReVolt
Poster


Joined: 28 Nov 2005
Posts: 3
Location: Gelsenkirchen [GER]

germany.gif
PostPosted: Mon Feb 27, 2006 4:47 am    Post subject: upload to my FTP? Reply with quote

Hey folks, since this download is no more available on the HTTP mirror given, could somebody please upload it to my FTP so it will be downloadable again? I don't have it either. Sad

ftp://dmaslowski.dyndns.org/

Feel free to upload it as anonymous into the incoming folder (one is enough so please post if you upload the file Wink ). That is a public directory where anybody may upload anything but illegal or commercial stuff etc. btw. I will then put the file into another directory, the download will be available at ftp://[email protected]/ later (with no password needed). If master GT is ok with that only of course. I hope he is. Smile

Thanks in advance

CyReVolt
Back to top
View user's profile Send private message Visit poster's website
djGT
Da Man


Joined: 22 Jul 2004
Posts: 6613
Location: The OC

usa.gif
PostPosted: Mon Feb 27, 2006 2:25 pm    Post subject: Re: upload to my FTP? Reply with quote

CyReVolt wrote:
Hey folks, since this download is no more available on the HTTP mirror given, could somebody please upload it to my FTP so it will be downloadable again? I don't have it either. Sad

Just added another mirror host for the mix, check the first post! Wink
_________________
VOT 149 (September 2017) + Rene Ablaze
Voices Of Summer (Dreamer + Dreaming)

Mixcloud :: Facebook :: Twitter :: MySpace :: TRACKER - Please help seed the torrents, especially those with zero seeders!
Back to top
View user's profile Send private message Visit poster's website AIM Address
CyReVolt
Poster


Joined: 28 Nov 2005
Posts: 3
Location: Gelsenkirchen [GER]

germany.gif
PostPosted: Tue Feb 28, 2006 7:06 am    Post subject: Oh boy... Reply with quote

You could as well be my lifeguard. Thanks so much! Smile
Back to top
View user's profile Send private message Visit poster's website
AlvaroBurnett
Poster


Joined: 22 Feb 2006
Posts: 1

blank.gif
PostPosted: Wed May 03, 2006 4:43 am    Post subject: Reply with quote

Download links don't work. Please fix it soon, this is the last mix that I need to complete the collection Smile

The first link gives a 403 Forbidden, the second a 404 Not found.
Back to top
View user's profile Send private message
fernando AK
Poster


Joined: 20 Feb 2006
Posts: 1

brazil.gif
PostPosted: Fri Jun 02, 2006 2:20 pm    Post subject: Reply with quote

greaatttttttttttttttttttttttt !! Laughing Laughing
Back to top
View user's profile Send private message
Display posts from previous:   
Post new topic   Reply to topic    Generation Trance Forum Index -> GT vs Project C (past - 2005) All times are GMT - 8 Hours
Goto page Previous  1, 2, 3, 4, 5  Next
Page 4 of 5

 
Jump to:  
You cannot post new topics in this forum
You cannot reply to topics in this forum
You cannot edit your posts in this forum
You cannot delete your posts in this forum
You cannot vote in polls in this forum


Powered by phpBB © 2001, 2005 phpBB Group

Powered by CloudFlare