Generation Trance
Vote for GT  at The DJ List! Vote for GT and Project C at The DJ List! Vote for Project C  at The DJ List!
 FAQFAQ   SearchSearch   Chat   MemberlistMemberlist   UsergroupsUsergroups   RegisterRegister 
 ProfileProfile   Log in to check your private messagesLog in to check your private messages   Log inLog in 
VOT 156 April 2018 + Ciacomix
Goto page Previous  1, 2
 
Post new topic   Reply to topic    Generation Trance Forum Index -> GT & Friends (2017 - present)
View previous topic :: View next topic  

Do you like music?
1st Hour
16%
 16%  [ 1 ]
2nd Hour
0%
 0%  [ 0 ]
1st + 2nd Hour
83%
 83%  [ 5 ]
Total Votes : 6

Author Message
mangohugo
Poster


Joined: 31 Jul 2011
Posts: 19

blank.gif
PostPosted: Fri Apr 19, 2019 2:41 am    Post subject: Reply with quote

dj GT - Voices Of Trance 168 (April 2019 Guest DJ Moo)

https://www3.zippyshare.com/v/f2qH9dgQ/file.html

Voices Of Spring 2019:

Rush:
https://www105.zippyshare.com/v/U56KR12a/file.html

Feelings:
https://www109.zippyshare.com/v/fSjqv1fd/file.html

Echos:
https://www22.zippyshare.com/v/D2ZC6uQT/file.html
Back to top
View user's profile Send private message
canada_trance
Poster


Joined: 01 Jun 2005
Posts: 80
Location: Winnipeg, Manitoba

canada.gif
PostPosted: Tue Apr 23, 2019 6:34 am    Post subject: Reply with quote

Thanks for posting these updated links and files! Love listening to these mixes.
_________________
Leisure with dignity
Back to top
View user's profile Send private message MSN Messenger
tranceaddict_cl
Poster


Joined: 27 Dec 2004
Posts: 291
Location: Punta Arenas, Chile

chile.gif
PostPosted: Wed Apr 24, 2019 2:53 pm    Post subject: Reply with quote

mangohugo wrote:
dj GT - Voices Of Trance 168 (April 2019 Guest DJ Moo)

https://www3.zippyshare.com/v/f2qH9dgQ/file.html

Voices Of Spring 2019:

Rush:
https://www105.zippyshare.com/v/U56KR12a/file.html

Feelings:
https://www109.zippyshare.com/v/fSjqv1fd/file.html

Echos:
https://www22.zippyshare.com/v/D2ZC6uQT/file.html


Pity that GT hasn't got the time to upload his fantastic sets and the tracklists. These sets are soo damned good, they get better and better. At least we can still enjoy them.

Beelow a suggested cuefile for Mix 1 (Rush). Corrections are welcome.
Cuefiling without a tracklist is very time consuming, but I'll try to do more as I get free time. These sets deserve it.

PERFORMER "dj GT"
TITLE "Voices of Spring 2019 Rush"
FILE "dj GT - Voices Of Spring 2019 (Rush)" MP3
TRACK 01 AUDIO
PERFORMER "Ayla"
TITLE "Ayla (Ben Nicky & Luke Bond Remix)"
INDEX 01 00:00:00
TRACK 02 AUDIO
PERFORMER "Motorcycle"
TITLE "As The Rush Comes (Morten Granau & Metronome Remix)"
INDEX 01 04:15:00
TRACK 03 AUDIO
PERFORMER "Solarstone & Alex Karweit"
TITLE "Choosing His Angels (Extended Club Mix)"
INDEX 01 11:27:00
TRACK 04 AUDIO
PERFORMER "Discovery"
TITLE "Missing (Original Club Mix)"
INDEX 01 17:42:00
TRACK 05 AUDIO
PERFORMER "Anna Lee & Natalie Goia & A.R.D.I."
TITLE "We Are Believers"
INDEX 01 24:45:00
TRACK 06 AUDIO
PERFORMER "Bogdan Vix & Lucid Blue"
TITLE "I Am Now (Mhammed El Alami Extended Mix)"
INDEX 01 29:44:00
TRACK 07 AUDIO
PERFORMER "Feel-X feat. Robin Vane"
TITLE "Found Myself (A&M Remix)"
INDEX 01 35:03:00
TRACK 08 AUDIO
PERFORMER "Fredd Moz feat. Sara Houston"
TITLE "Free Flyer (Extended Mix)"
INDEX 01 40:09:00
TRACK 09 AUDIO
PERFORMER "Nitrous Oxide feat. Jess Morgan"
TITLE "Golden Horizon (Extended Mix)"
INDEX 01 46:07:00
TRACK 10 AUDIO
PERFORMER "Roman Messer feat. Eric Lumiere"
TITLE "Closer (Steve Allen Remix)"
INDEX 01 52:08:00
TRACK 11 AUDIO
PERFORMER "Sam Laxton & Noire Lee"
TITLE "Thunderstorm (Extended Mix)"
INDEX 01 57:00:00
TRACK 12 AUDIO
PERFORMER "Sean Mathews"
TITLE "Rise Again (Extended Mix)"
INDEX 01 61:28:00
TRACK 13 AUDIO
PERFORMER "Sunsitive"
TITLE "Surreal World"
INDEX 01 66:34:00
TRACK 14 AUDIO
PERFORMER "Tau-Rine feat. Alaera"
TITLE "In The Memory (Original Mix)"
INDEX 01 71:40:00
Back to top
View user's profile Send private message Send e-mail
tranceaddict_cl
Poster


Joined: 27 Dec 2004
Posts: 291
Location: Punta Arenas, Chile

chile.gif
PostPosted: Sat Apr 27, 2019 7:58 am    Post subject: Reply with quote

tranceaddict_cl wrote:
mangohugo wrote:
dj GT - Voices Of Trance 168 (April 2019 Guest DJ Moo)

https://www3.zippyshare.com/v/f2qH9dgQ/file.html

Voices Of Spring 2019:

Rush:
https://www105.zippyshare.com/v/U56KR12a/file.html

Feelings:
https://www109.zippyshare.com/v/fSjqv1fd/file.html

Echos:
https://www22.zippyshare.com/v/D2ZC6uQT/file.html


Pity that GT hasn't got the time to upload his fantastic sets and the tracklists. These sets are soo damned good, they get better and better. At least we can still enjoy them.

Beelow a suggested cuefile for Mix 1 (Rush). Corrections are welcome.
Cuefiling without a tracklist is very time consuming, but I'll try to do more as I get free time. These sets deserve it.

PERFORMER "dj GT"
TITLE "Voices of Spring 2019 Rush"
FILE "dj GT - Voices Of Spring 2019 (Rush)" MP3
TRACK 01 AUDIO
PERFORMER "Ayla"
TITLE "Ayla (Ben Nicky & Luke Bond Remix)"
INDEX 01 00:00:00
TRACK 02 AUDIO
PERFORMER "Motorcycle"
TITLE "As The Rush Comes (Morten Granau & Metronome Remix)"
INDEX 01 04:15:00
TRACK 03 AUDIO
PERFORMER "Solarstone & Alex Karweit"
TITLE "Choosing His Angels (Extended Club Mix)"
INDEX 01 11:27:00
TRACK 04 AUDIO
PERFORMER "Discovery"
TITLE "Missing (Original Club Mix)"
INDEX 01 17:42:00
TRACK 05 AUDIO
PERFORMER "Anna Lee & Natalie Goia & A.R.D.I."
TITLE "We Are Believers"
INDEX 01 24:45:00
TRACK 06 AUDIO
PERFORMER "Bogdan Vix & Lucid Blue"
TITLE "I Am Now (Mhammed El Alami Extended Mix)"
INDEX 01 29:44:00
TRACK 07 AUDIO
PERFORMER "Feel-X feat. Robin Vane"
TITLE "Found Myself (A&M Remix)"
INDEX 01 35:03:00
TRACK 08 AUDIO
PERFORMER "Fredd Moz feat. Sara Houston"
TITLE "Free Flyer (Extended Mix)"
INDEX 01 40:09:00
TRACK 09 AUDIO
PERFORMER "Nitrous Oxide feat. Jess Morgan"
TITLE "Golden Horizon (Extended Mix)"
INDEX 01 46:07:00
TRACK 10 AUDIO
PERFORMER "Roman Messer feat. Eric Lumiere"
TITLE "Closer (Steve Allen Remix)"
INDEX 01 52:08:00
TRACK 11 AUDIO
PERFORMER "Sam Laxton & Noire Lee"
TITLE "Thunderstorm (Extended Mix)"
INDEX 01 57:00:00
TRACK 12 AUDIO
PERFORMER "Sean Mathews"
TITLE "Rise Again (Extended Mix)"
INDEX 01 61:28:00
TRACK 13 AUDIO
PERFORMER "Sunsitive"
TITLE "Surreal World"
INDEX 01 66:34:00
TRACK 14 AUDIO
PERFORMER "Tau-Rine feat. Alaera"
TITLE "In The Memory (Original Mix)"
INDEX 01 71:40:00


Actually, "Rush" is Mix 3
Back to top
View user's profile Send private message Send e-mail
tranceaddict_cl
Poster


Joined: 27 Dec 2004
Posts: 291
Location: Punta Arenas, Chile

chile.gif
PostPosted: Sat Apr 27, 2019 8:01 am    Post subject: Reply with quote

mangohugo wrote:
dj GT - Voices Of Trance 168 (April 2019 Guest DJ Moo)

https://www3.zippyshare.com/v/f2qH9dgQ/file.html

Voices Of Spring 2019:

Rush:
https://www105.zippyshare.com/v/U56KR12a/file.html

Feelings:
https://www109.zippyshare.com/v/fSjqv1fd/file.html

Echos:
https://www22.zippyshare.com/v/D2ZC6uQT/file.html



Suggested cuefile for Mix 2 "Feelings". Corrections are welcome¨

PERFORMER "dj GT"
TITLE "Voices Of Spring 2019 (Feelings)"
FILE "dj GT - Voices Of Spring 2019 (Feelings)" MP3
TRACK 01 AUDIO
PERFORMER "Andy Norling feat. Eden Knight"
TITLE "Set Me Free (Original Mix) [Maraphobia]"
INDEX 01 00:00:00
TRACK 02 AUDIO
PERFORMER "DJ Shog & Roger Shah"
TITLE "Without You (Lokee & Sway Gray Remix Edit) [Nitron Music]"
INDEX 01 03:31:00
TRACK 03 AUDIO
PERFORMER "ROMM & Alex Believe feat. Roxy Charming"
TITLE "Blind Feelings (Sundrowner Remix) [Addictive Sounds]"
INDEX 01 07:50:00
TRACK 04 AUDIO
PERFORMER "Steve Brian"
TITLE "Avocado (Cabriolet Paris Remix) [Euphonic]"
INDEX 01 13:27:00
TRACK 05 AUDIO
PERFORMER"Roman Messer & DJ Xquizit feat. Osito"
TITLE "Empire Of Our Own (Original Mix) [Suanda Music]"
INDEX 01 15:47:00
TRACK 06 AUDIO
PERFORMER "Alexander Popov & Tenishia feat. Thomas T"
TITLE "Play Your Cards (Alternative Mix) [Interplay Records]"
INDEX 01 20:50:00
TRACK 07 AUDIO
PERFORMER "Roman Messer & Betsie Larkin"
TITLE "Unite (Omnia Remix) [Suanda Music Radio]"
INDEX 01 24:26:00
TRACK 08 AUDIO
PERFORMER "Dennis Graft feat. Maria Milewska"
TITLE "Until (Original Mix) [Suanda Music]"
INDEX 01 29:18:00
TRACK 09 AUDIO
PERFORMER "Bobina & Jes"
TITLE "Ibelieve (Magik Muzik]"
INDEX 01 33:21:00
TRACK 10 AUDIO
PERFORMER "Denis Kenzo & Clara Yates"
TITLE "Other Side (Extended Mix) [Denis Kenzo Recordings]"
INDEX 01 39:48:00
TRACK 11 AUDIO
PERFORMER "Eximinds & Lucid Blue"
TITLE "A Higher Love (Original Mix) [Suanda Voice]"
INDEX 01 44:58:00
TRACK 12 AUDIO
PERFORMER "4 Strings & Waltin Jay"
TITLE "Stay (Extended Mix) (Raz Nitzan Music]"
INDEX 01 50:02:00
TRACK 13 AUDIO
PERFORMER "BT & Jes"
TITLE "Every Other Way (PureNRG Extended Remix) [Raz Nitzan Music]"
INDEX 01 54:51:00
TRACK 14 AUDIO
PERFORMER "FloE & J. Puchler feat. Robin Vane"
TITLE "Alive (Derek Palmer Remix) [Entrancing Music Relentless]"
INDEX 01 60:11:00
TRACK 15 AUDIO
PERFORMER "Roman Messer feat. Clare Stagg"
TITLE "For You (Steve Allen Extended Remix) [Suanda Music]"
INDEX 01 65:31:00
TRACK 16 AUDIO
PERFORMER "Sunsitive feat. Angel Falls"
TITLE "Summer Love (Derek Palmer Remix) [Evolve Records]"
INDEX 01 70:09:00
Back to top
View user's profile Send private message Send e-mail
mangohugo
Poster


Joined: 31 Jul 2011
Posts: 19

blank.gif
PostPosted: Wed May 22, 2019 3:21 am    Post subject: Reply with quote

dj GT - Voices Of Trance 169 (April 2019 Guest E2D)

https://drive.google.com/open?id=10GZgrqR-bZ-bm21ju72CevXzxTN46KZM
Back to top
View user's profile Send private message
ViperJB
Poster


Joined: 23 May 2007
Posts: 4

blank.gif
PostPosted: Thu Jun 06, 2019 9:41 am    Post subject: Reply with quote

Generation Trance forever.
Back to top
View user's profile Send private message
aharami
Poster


Joined: 13 Nov 2004
Posts: 16

blank.gif
PostPosted: Thu Jun 13, 2019 6:48 pm    Post subject: Reply with quote

anyone know why GT or Project C hasn't posted here in a while?
Back to top
View user's profile Send private message
aharami
Poster


Joined: 13 Nov 2004
Posts: 16

blank.gif
PostPosted: Thu Jun 13, 2019 6:59 pm    Post subject: Reply with quote

mangohugo wrote:
dj GT - Voices Of Trance 168 (April 2019 Guest DJ Moo)

https://www3.zippyshare.com/v/f2qH9dgQ/file.html

Voices Of Spring 2019:

Rush:
https://www105.zippyshare.com/v/U56KR12a/file.html

Feelings:
https://www109.zippyshare.com/v/fSjqv1fd/file.html

Echos:
https://www22.zippyshare.com/v/D2ZC6uQT/file.html


thanks for all the links!! Much appreciated!
Back to top
View user's profile Send private message
aharami
Poster


Joined: 13 Nov 2004
Posts: 16

blank.gif
PostPosted: Thu Jun 13, 2019 10:03 pm    Post subject: Re: VOT 157 and VOT 158 Reply with quote

Bud_ wrote:
For those, who cannot wait (like I do):
VOT 157:
https://openload.co/f/kQ1GvwO2KM0/dj_GT_Feat_DJ_Moo_-_Voices_Of_Trance_157_%28May_2018%29.zip
VOT 158:
https://openload.co/f/LjCe-sLnDnM/dj_GT_-_Voices_Of_Trance_158_%28June_2018_Guest_DJ_Moo%29.zip


links are dead. If anyone has VOT 157/158, please share.

TIA
Back to top
View user's profile Send private message
opticron
Poster


Joined: 28 Nov 2004
Posts: 1

blank.gif
PostPosted: Fri Jun 14, 2019 7:08 pm    Post subject: Reply with quote

This should hopefully get you the missing 157, 158, and 161 sets: magnet:?xt=urn:btih:a38ab1a99c6674c198a9fa79ee66d4318dde84af&dn=Voices%5FOf%5FTrance%5F157%5F158%5F161&tr=udp%3A%2F%2F9.rarbg.me%3A2730%2Fannounce
Back to top
View user's profile Send private message
Display posts from previous:   
Post new topic   Reply to topic    Generation Trance Forum Index -> GT & Friends (2017 - present) All times are GMT - 8 Hours
Goto page Previous  1, 2
Page 2 of 2

 
Jump to:  
You cannot post new topics in this forum
You cannot reply to topics in this forum
You cannot edit your posts in this forum
You cannot delete your posts in this forum
You cannot vote in polls in this forum


Powered by phpBB © 2001, 2005 phpBB Group

Powered by CloudFlare