Generation Trance
Vote for GT  at The DJ List! Vote for GT and Project C at The DJ List! Vote for Project C  at The DJ List!
 FAQFAQ   SearchSearch   Chat   MemberlistMemberlist   UsergroupsUsergroups   RegisterRegister 
 ProfileProfile   Log in to check your private messagesLog in to check your private messages   Log inLog in 
VOT 095 March 2013

 
Post new topic   Reply to topic    Generation Trance Forum Index -> GT vs Project C (2012 - 2014)
View previous topic :: View next topic  

Do you like music?
Yes
100%
 100%  [ 3 ]
No
0%
 0%  [ 0 ]
Total Votes : 3

Author Message
djGT
Da Man


Joined: 22 Jul 2004
Posts: 6623
Location: The OC

usa.gif
PostPosted: Wed Jun 19, 2013 7:06 pm    Post subject: VOT 095 March 2013 Reply with quote

Check out our mix for VOT 095 March 2013 show!

1st & 2nd Hour - GT vs Project C

01. Alex M.o.r.p.h. ft Shannon Hurley - Monday Morning Madness (Alexander Popov Remix)
02. Boom Jinx ft Justine Suissa - Phoenix From The Flames (Maor Levi Remix)
03. Markus Schulz ft Seri - Love Rain Down (Myon & Shane 54 Summer Of Love Mix)
04. Tydi ft Christina Novelli - Fire & Load (Extended Mix)
05. Dennis Sheperd & Cold Blue ft Ana Criado - Fallen Angel (Lange Remix)
06. Gabriel & Dresden ft Betsie Larkin - Play It Back (Maor Levi Remix)
07. Faruk Sabanci ft Cami - Awaken
08. Ronski Speed ft Melissa Loretta - Sanity (Original Mix)
09. Allure ft Emma Hewitt - No Goodbyes (Lange Remix)
10. Solarstone vs Scott Bond - 3rd Earth (Max Graham Remix)
11. Betsie Larkin & Ferry Corsten - Stars (Alex Orion Bigger Room Remix)
12. Christian Burns, Paul Oakenfold & Jes - As We Collide (Orjan Nilsen Remix)
13. Planet Perfecto - Bullet In The Gun (Eddie Halliwell Remix)
14. Ellie Lawson & Matt Bukovski - Breathe In Breathe Out (Original Mix)
15. Andy Duguid ft Jes - Before You Go (Mike Saint-Jules Dark Moon Remix)
16. Eddie Bitar & Genix ft Jennifer Rene - Drift (Eddie Bitar Vocal Mix)
17. Andain - What Its Like (David Gravell Remix)
18. PVD ft Kyau & Albert - Open My Eyes (Kyau & Albert Remix)
19. Richard Durand & Pedro del Mar ft Roberta Harrison - Paint the Sky (Tom Cloud Remix)
20. Hardwell vs Fragma - Spaceman's Miracle (Hardwell Sensation MashUp)
21. Tomcraft - Loneliness 2k13 (Jaxxon Remix)


*************************************************************
HTTP DOWNLOADS:

MIRROR #1:
1st & 2nd Hour: Download MP3
_________________
Voices Of Winter 2017 (Strong + Gift)
VOT 156 (April 2018) + Ciacomix

Mixcloud :: Facebook :: Twitter :: MySpace :: TRACKER - Please help seed the torrents, especially those with zero seeders!
Back to top
View user's profile Send private message Visit poster's website AIM Address
aharami
Poster


Joined: 13 Nov 2004
Posts: 13

blank.gif
PostPosted: Sun Feb 14, 2016 4:59 pm    Post subject: Reply with quote

this mix is so good!
Back to top
View user's profile Send private message
aharami
Poster


Joined: 13 Nov 2004
Posts: 13

blank.gif
PostPosted: Sat Dec 09, 2017 8:10 pm    Post subject: Reply with quote

cue sheet if anyone is interested

Code:
Performer "GT vs Project C"
TITLE "Voices Of Autumn 2013 (Sadness)"
FILE "01_GT_vs_Project_C_-_Voices_Of_Trance_095_(March_2013).mp3" MP3

  TRACK 01 AUDIO
    TITLE "Alex M.o.r.p.h. ft Shannon Hurley - Monday Morning Madness (Alexander Popov Remix)"
    INDEX 01 00:00:00
  TRACK 02 AUDIO
    TITLE "Boom Jinx ft Justine Suissa - Phoenix From The Flames (Maor Levi Remix)"
    INDEX 01 05:55:00
  TRACK 03 AUDIO
    TITLE "Markus Schulz ft Seri - Love Rain Down (Myon & Shane 54 Summer Of Love Mix)"
    INDEX 01 12:11:00
  TRACK 04 AUDIO
    TITLE "Tydi ft Christina Novelli - Fire & Load (Extended Mix)"
    INDEX 01 17:36:00
  TRACK 05 AUDIO
    TITLE "Dennis Sheperd & Cold Blue ft Ana Criado - Fallen Angel (Lange Remix)"
    INDEX 01 22:45:00
  TRACK 06 AUDIO
    TITLE "Gabriel & Dresden ft Betsie Larkin - Play It Back (Maor Levi Remix)"
    INDEX 01 28:15:00
  TRACK 07 AUDIO
    TITLE "Faruk Sabanci ft Cami - Awaken"
    INDEX 01 33:25:00
  TRACK 08 AUDIO
    TITLE "Ronski Speed ft Melissa Loretta - Sanity (Original Mix)"
    INDEX 01 39:40:00
  TRACK 09 AUDIO
    TITLE "Allure ft Emma Hewitt - No Goodbyes (Lange Remix)"
    INDEX 01 44:40:00
  TRACK 10 AUDIO
    TITLE "Solarstone vs Scott Bond - 3rd Earth (Max Graham Remix)"
    INDEX 01 52:10:00
  TRACK 11 AUDIO
    TITLE "Betsie Larkin & Ferry Corsten - Stars (Alex Orion Bigger Room Remix)"
    INDEX 01 56:24:00
  TRACK 12 AUDIO
    TITLE "Christian Burns, Paul Oakenfold & Jes - As We Collide (Orjan Nilsen Remix)"
    INDEX 01 62:40:00
  TRACK 13 AUDIO
    TITLE "Planet Perfecto - Bullet In The Gun (Eddie Halliwell Remix)"
    INDEX 01 68:25:00
  TRACK 14 AUDIO
    TITLE "Ellie Lawson & Matt Bukovski - Breathe In Breathe Out (Original Mix)"
    INDEX 01 73:05:00
  TRACK 15 AUDIO
    TITLE "Andy Duguid ft Jes - Before You Go (Mike Saint-Jules Dark Moon Remix)"
    INDEX 01 78:17:00   
  TRACK 16 AUDIO
    TITLE "Eddie Bitar & Genix ft Jennifer Rene - Drift (Eddie Bitar Vocal Mix)"
    INDEX 01 83:45:00   
  TRACK 17 AUDIO
    TITLE "Andain - What Its Like (David Gravell Remix)"
    INDEX 01 89:30:00
  TRACK 18 AUDIO
    TITLE "PVD ft Kyau & Albert - Open My Eyes (Kyau & Albert Remix)"
    INDEX 01 95:00:00
  TRACK 19 AUDIO
    TITLE "Richard Durand & Pedro del Mar ft Roberta Harrison - Paint the Sky (Tom Cloud Remix)"
    INDEX 01 100:14:00
  TRACK 20 AUDIO
    TITLE "Hardwell vs Fragma - Spaceman's Miracle (Hardwell Sensation MashUp)"
    INDEX 01 105:30:00
  TRACK 21 AUDIO
    TITLE "Tomcraft - Loneliness 2k13 (Jaxxon Remix)"
    INDEX 01 111:06:00
Back to top
View user's profile Send private message
Display posts from previous:   
Post new topic   Reply to topic    Generation Trance Forum Index -> GT vs Project C (2012 - 2014) All times are GMT - 8 Hours
Page 1 of 1

 
Jump to:  
You cannot post new topics in this forum
You cannot reply to topics in this forum
You cannot edit your posts in this forum
You cannot delete your posts in this forum
You cannot vote in polls in this forum


Powered by phpBB © 2001, 2005 phpBB Group

Powered by CloudFlare