Generation Trance
Vote for GT  at The DJ List! Vote for GT and Project C at The DJ List! Vote for Project C  at The DJ List!
 FAQFAQ   SearchSearch   Chat   MemberlistMemberlist   UsergroupsUsergroups   RegisterRegister 
 ProfileProfile   Log in to check your private messagesLog in to check your private messages   Log inLog in 
VOT 087 July 2012

 
Post new topic   Reply to topic    Generation Trance Forum Index -> GT vs Project C (2012 - 2014)
View previous topic :: View next topic  

Do you like music?
Yes
0%
 0%  [ 0 ]
No
0%
 0%  [ 0 ]
Total Votes : 0

Author Message
Project C
Da Bro


Joined: 29 Jul 2004
Posts: 2082
Location: OC

usa.gif
PostPosted: Wed Jul 18, 2012 7:23 pm    Post subject: VOT 087 July 2012 Reply with quote

Hi all.... Enjoy!!!


01. Andy Moor & Betsie Larkin - Love Again
02. Richard Durand & Pedro del Mar ft Roberta Harrison - Paint The Sky
03. Headstrong ft Shelley Harland - Here In The Dark (Aurosonic Progressive Mix)
04. ATB with Amurai ft Melissa Loretta - Heartbeat (ATB's Deep From the Heart Remix)
05. Andain - Turn Up The Sound (Xtigma Remix)
06. George Acosta ft Lizzie Curious - Like Home (Khomha's Sunrise Mix)
07. Above & Beyond & Andy Moor - Air For Life (Norin & Rad Remix)
08. Rank 1 & Jochen Miller ft Sarah Bettens - Wild & Perfect Day (Michael Jay Parker Peaktime Remix)
09. Linnea Schossow - Someone Like You (Alex M.o.r.p.h's Darth Morph Rework)
10. Ignas ft Julie Thompson - Hold On (Maor Levi Club Mix)
11. Tydi with Tenishia & Jennifer Rene - Greater Heights (Tom Fall Remix)
12. Ivan Gough & Feenixpawl ft Georgi Kay - In My Mind (Original Mix)
13. Kyau & Albert - Are You Fine (Arty Remix)
14. Ferry Corsten ft Aruna - Live Forever (Shogun Remix)
15. Will Holland ft Jeza - Every Heartbeat (Beat Service Remix)
16. Ashley Wallbridge ft Audrey Gallagher - Bang The Drum (Omnia Remix)
17. Allure ft Emma Hewitt - Stay Forever (Steve Brian Remix)
18. AVB ft Ana Criado - Suddenly Summer (Heatbeat Remix)
19. Poshout ft Ange - Beside (MAA Remix)
20. Andrew Bayer ft Molly Bancroft - Keep Your Secrets (Myon & Shane 54 Summer Of Love Mix)


*************************************************************
HTTP DOWNLOADS:

MIRROR #1:
1st & 2nd Hour: Download MP3
_________________
www.generationtrance.com
Back to top
View user's profile Send private message Send e-mail Visit poster's website AIM Address Yahoo Messenger
T800
Poster


Joined: 23 Nov 2004
Posts: 294
Location: Belgium

belgium.gif
PostPosted: Sat Jul 21, 2012 8:17 am    Post subject: Reply with quote

Great mix Very Happy

Thanks for sharing it

Any news about VOT 086 ?
Back to top
View user's profile Send private message
bone
Poster


Joined: 25 Jul 2012
Posts: 2

blank.gif
PostPosted: Thu Jul 26, 2012 2:15 am    Post subject: .CUE Reply with quote

My .CUE file for anyone who needs it, its not perfect but it works and will save you all some time I hope!

PERFORMER "Generation Trance"
TITLE "Voices of Trance July 2012"
FILE "Voices of Trance July 2012" MP3
TRACK 01 AUDIO
PERFORMER "Andy Moor & Betsie Larkin "
TITLE "Love Again"
INDEX 01 00:00:00
TRACK 02 AUDIO
PERFORMER "Richard Durand & Pedro del Mar ft Roberta Harrison"
TITLE "Paint The Sky"
INDEX 01 06:16:00
TRACK 03 AUDIO
PERFORMER "Headstrong ft Shelley Harland"
TITLE "Here In The Dark (Aurosonic Progressive Mix)"
INDEX 01 11:44:00
TRACK 04 AUDIO
PERFORMER "ATB with Amurai ft Melissa Loretta"
TITLE "Heartbeat (ATB Deep From the Heart Remix)"
INDEX 01 17:24:00
TRACK 05 AUDIO
PERFORMER "Andain"
TITLE "Turn Up The Sound (Xtigma Remix)"
INDEX 01 24:18:00
TRACK 06 AUDIO
PERFORMER "George Acosta ft Lizzie Curious"
TITLE "Like Home (Khomha Sunrise Mix)"
INDEX 01 29:43:00
TRACK 07 AUDIO
PERFORMER "Above & Beyond & Andy Moor"
TITLE "Air For Life (Norin & Rad Remix)"
INDEX 01 35:52:00
TRACK 08 AUDIO
PERFORMER "Rank 1 & Jochen Miller ft Sarah Bettens"
TITLE "Wild & Perfect Day (Michael Jay Parker Peaktime Remix)"
INDEX 01 41:40:00
TRACK 09 AUDIO
PERFORMER "Linnea Schossow"
TITLE "Someone Like You (Alex M.o.r.p.h Darth Morph Rework)"
INDEX 01 47:37:00
TRACK 10 AUDIO
PERFORMER "Ignas ft Julie Thompson"
TITLE "Hold On (Maor Levi Club Mix)"
INDEX 01 52:47:00
TRACK 11 AUDIO
PERFORMER "Tydi with Tenishia & Jennifer Rene"
TITLE "Greater Heights (Tom Fall Remix)"
INDEX 01 60:21:00
TRACK 12 AUDIO
PERFORMER "Ivan Gough & Feenixpawl ft Georgi Kay"
TITLE "In My Mind (Original Mix)"
INDEX 01 66:07:00
TRACK 13 AUDIO
PERFORMER "Kyau & Albert"
TITLE "Are You Fine (Arty Remix)"
INDEX 01 72:20:00
TRACK 14 AUDIO
PERFORMER "Ferry Corsten ft Aruna"
TITLE "Live Forever (Shogun Remix)"
INDEX 01 77:01:00
TRACK 15 AUDIO
PERFORMER "Will Holland ft Jeza"
TITLE "Every Heartbeat (Beat Service Remix)"
INDEX 01 82:56:00
TRACK 16 AUDIO
PERFORMER "Ashley Wallbridge ft Audrey Gallagher"
TITLE "Bang The Drum (Omnia Remix)"
INDEX 01 88:17:00
TRACK 17 AUDIO
PERFORMER "Allure ft Emma Hewitt"
TITLE "Stay Forever (Steve Brian Remix)"
INDEX 01 94:41:00
TRACK 18 AUDIO
PERFORMER "AVB ft Ana Criado"
TITLE "Suddenly Summer (Heatbeat Remix)"
INDEX 01 99:47:00
TRACK 19 AUDIO
PERFORMER "Poshout ft Ange"
TITLE "Beside (MAA Remix)"
INDEX 01 105:06:00
TRACK 20 AUDIO
PERFORMER "Andrew Bayer ft Molly Bancroft"
TITLE "Keep Your Secrets (Myon & Shane 54 Summer Of Love Mix)"
INDEX 01 111:44:00
Back to top
View user's profile Send private message
MoOnY
Poster


Joined: 05 Jul 2006
Posts: 84
Location: Hannover

germany.gif
PostPosted: Sun Aug 19, 2012 4:02 pm    Post subject: Reply with quote

Thank you for beeing active again and sharing Smile
_________________
DJ GT & Project C in Germany ?! 2008? PLEEASE
Back to top
View user's profile Send private message
Vapaam
Da Leech


Joined: 19 May 2009
Posts: 0

finland.gif
PostPosted: Tue Aug 21, 2012 10:18 am    Post subject: Reply with quote

Damn nice set! Smile
And thx for the download!
Back to top
View user's profile Send private message
Marvil
Poster


Joined: 17 Mar 2005
Posts: 11
Location: Oslo

norway.gif
PostPosted: Wed Aug 22, 2012 2:29 am    Post subject: Nice! Reply with quote

Haven't been on the site for a long time, but now I'm driving my coworkers crazy when downloading the sets. Laughing
_________________
do it , do it now!!!
Back to top
View user's profile Send private message
duo
Poster


Joined: 23 Jul 2005
Posts: 27
Location: Brussels

belgium.gif
PostPosted: Tue Sep 11, 2012 9:01 am    Post subject: Reply with quote

Thank you for keeping the site alive and for posting mixes when you can. I've been listening to you guys since 2004 and although not very active on the forum I greatly appreciate all your kindness in making this music available to us. Your mixes are great!!! Listening to this latest mix reminds me of all the good moments I've shared with other listeners here in all these years.
Back to top
View user's profile Send private message
Ohman775
Poster


Joined: 24 Jun 2005
Posts: 8
Location: Tununak

usa.gif
PostPosted: Fri Sep 14, 2012 5:19 pm    Post subject: Reply with quote

oh for sure alaska represent since i can't remember when. you all are awesome
Back to top
View user's profile Send private message Visit poster's website MSN Messenger
trance4u
Da Promoter


Joined: 21 Mar 2005
Posts: 28

usa.gif
PostPosted: Wed Sep 19, 2012 1:03 pm    Post subject: Re: VOT 087 July 2012 Reply with quote

Project C wrote:
Hi all.... Enjoy!!!


01. Andy Moor & Betsie Larkin - Love Again
02. Richard Durand & Pedro del Mar ft Roberta Harrison - Paint The Sky
03. Headstrong ft Shelley Harland - Here In The Dark (Aurosonic Progressive Mix)
04. ATB with Amurai ft Melissa Loretta - Heartbeat (ATB's Deep From the Heart Remix)
05. Andain - Turn Up The Sound (Xtigma Remix)
06. George Acosta ft Lizzie Curious - Like Home (Khomha's Sunrise Mix)
07. Above & Beyond & Andy Moor - Air For Life (Norin & Rad Remix)
08. Rank 1 & Jochen Miller ft Sarah Bettens - Wild & Perfect Day (Michael Jay Parker Peaktime Remix)
09. Linnea Schossow - Someone Like You (Alex M.o.r.p.h's Darth Morph Rework)
10. Ignas ft Julie Thompson - Hold On (Maor Levi Club Mix)
11. Tydi with Tenishia & Jennifer Rene - Greater Heights (Tom Fall Remix)
12. Ivan Gough & Feenixpawl ft Georgi Kay - In My Mind (Original Mix)
13. Kyau & Albert - Are You Fine (Arty Remix)
14. Ferry Corsten ft Aruna - Live Forever (Shogun Remix)
15. Will Holland ft Jeza - Every Heartbeat (Beat Service Remix)
16. Ashley Wallbridge ft Audrey Gallagher - Bang The Drum (Omnia Remix)
17. Allure ft Emma Hewitt - Stay Forever (Steve Brian Remix)
18. AVB ft Ana Criado - Suddenly Summer (Heatbeat Remix)
19. Poshout ft Ange - Beside (MAA Remix)
20. Andrew Bayer ft Molly Bancroft - Keep Your Secrets (Myon & Shane 54 Summer Of Love Mix)

http://www.sendspace.com/file/73l0t4


Excellent! Thanks for the mix. Very Happy
Back to top
View user's profile Send private message Visit poster's website
Display posts from previous:   
Post new topic   Reply to topic    Generation Trance Forum Index -> GT vs Project C (2012 - 2014) All times are GMT - 8 Hours
Page 1 of 1

 
Jump to:  
You cannot post new topics in this forum
You cannot reply to topics in this forum
You cannot edit your posts in this forum
You cannot delete your posts in this forum
You cannot vote in polls in this forum


Powered by phpBB © 2001, 2005 phpBB Group

Powered by CloudFlare