Generation Trance
Vote for GT  at The DJ List! Vote for GT and Project C at The DJ List! Vote for Project C  at The DJ List!
 FAQFAQ   SearchSearch   Chat   MemberlistMemberlist   UsergroupsUsergroups   RegisterRegister 
 ProfileProfile   Log in to check your private messagesLog in to check your private messages   Log inLog in 
VOT 083 March 2012

 
Post new topic   Reply to topic    Generation Trance Forum Index -> GT vs Project C (2012 - 2014)
View previous topic :: View next topic  

Do you like music?
Yes
0%
 0%  [ 0 ]
No
0%
 0%  [ 0 ]
Total Votes : 0

Author Message
Project C
Da Bro


Joined: 29 Jul 2004
Posts: 2082
Location: OC

usa.gif
PostPosted: Fri May 04, 2012 11:04 am    Post subject: VOT 083 March 2012 Reply with quote

Enjoy!!!

01. Matt Darey ft Leah - Hold Your Breath (Original Mix)
02. Cosmic Gate ft Emma Hewitt - Not Enough Time (Andy Duguid Remix)
03. Robbie Rivera ft Jes - Turn It Around (Original Mix)
04. Mads Arp ft Julie Harrington - Slow It Down (Space Rockerz Re-Run Remix)
05. Temple One ft Neev Kennedy - Love The Fear (Tom Fall Remix)
06. Rank 1 & Jochen Miller ft Sarah Bettens - Wild & Perfect Day (Extended Mix)
07. Space Rockerz ft Ellie Lawson - So Out of Reach (Original Mix)
08. Fredda l & Fisher - Love You Call It (Beat Service Remix)
09. John O' Callaghan ft Cathy Burton - Perfection (Shogun Remix)
10. Gareth Emery ft Christina Novelli - Concrete Angel (Original Mix)
11. Dj Feel ft Loona - Ill Find Myself
12. John O' Callaghan & Kathryn Gallagher - Mess Of A Machine (Extended Mix)
13. Ashley Wallbridge ft Meighan Nealon - My Blood (Tydi Remix)
14. BT - Force Of Gravity (Orjan Nilsen Remix)
15. The Blizzard & Yuri Kane ft Relyk - Everything About You (Original Mix)
16. Boom Jinx ft Justine Suissa - Phoenix From The Flames (Club Mix)
17. Maor Levi ft Ashley Tomberlin - Chasing Love (Maor Levi Club Mix)
18. Emma Hewitt - Colours (Armin van Buuren Remix)
19. Kyau & Albert - This Love (Original Mix)
20. The Thrillseekers ft Fisher - The Last Time (Johan Malmgren 2012 Remix)


*************************************************************
HTTP DOWNLOADS:

MIRROR #1:
1st & 2nd Hour: Download MP3
_________________
www.generationtrance.com
Back to top
View user's profile Send private message Send e-mail Visit poster's website AIM Address Yahoo Messenger
T800
Poster


Joined: 23 Nov 2004
Posts: 294
Location: Belgium

belgium.gif
PostPosted: Sun May 06, 2012 3:00 am    Post subject: Reply with quote

Yeahhh Very Happy

Thanks a lot Wink
Back to top
View user's profile Send private message
bugmenot6
Poster


Joined: 07 Jul 2007
Posts: 3

blank.gif
PostPosted: Mon May 07, 2012 11:06 am    Post subject: Just came back Reply with quote

Thanks guys for posting stuff again..... Im resharing with all the peeps that use to love the old voice of trance to let them know GT & PROJECT C are back!!!!!
Back to top
View user's profile Send private message
canada_trance
Poster


Joined: 01 Jun 2005
Posts: 79
Location: Winnipeg, Manitoba

canada.gif
PostPosted: Mon May 07, 2012 12:40 pm    Post subject: Reply with quote

Glad you guys are back - still the best mixes out there!
_________________
Leisure with dignity
Back to top
View user's profile Send private message MSN Messenger
Project C
Da Bro


Joined: 29 Jul 2004
Posts: 2082
Location: OC

usa.gif
PostPosted: Mon May 07, 2012 7:03 pm    Post subject: Reply with quote

We have been here still doing monthly mixes for DI.fm... We just have been short on time therefore not all the mixes gets posted... Thanks for your continued support and we will post mixes as often as we can...
_________________
www.generationtrance.com
Back to top
View user's profile Send private message Send e-mail Visit poster's website AIM Address Yahoo Messenger
milch
Poster


Joined: 07 Aug 2011
Posts: 11

blank.gif
PostPosted: Tue May 08, 2012 1:37 pm    Post subject: Reply with quote

Great! some of the best mixes around! Keep them posting but more often if possible Smile
Back to top
View user's profile Send private message
anubus
Poster


Joined: 02 Dec 2004
Posts: 4

usa.gif
PostPosted: Sat May 12, 2012 11:56 am    Post subject: Reply with quote

Thanks for posting!
Back to top
View user's profile Send private message
tranceaddict_cl
Poster


Joined: 27 Dec 2004
Posts: 285
Location: Punta Arenas, Chile

chile.gif
PostPosted: Tue May 15, 2012 8:33 pm    Post subject: Reply with quote

Two different formats for u to use the one that suits you most:

PERFORMER "(GT) GT vs Project C"
TITLE "Voices of Trance 083 (March 2012)"
FILE "VOT 2012 March" MP3
TRACK 01 AUDIO
TITLE "Matt Darey ft Leah: Hold Your Breath (Original Mix)"
INDEX 01 00:00:00
TRACK 02 AUDIO
TITLE "Cosmic Gate ft Emma Hewitt: Not Enough Time (Andy Duguid Remix)"
INDEX 01 04:30:00
TRACK 03 AUDIO
TITLE "Robbie Rivera ft Jes: Turn It Around (Original Mix)"
INDEX 01 10:00:00
TRACK 04 AUDIO
TITLE "Mads Arp ft Julie Harrington: Slow It Down (Space Rockerz Re-Run Remix)"
INDEX 01 15:30:00
TRACK 05 AUDIO
TITLE "Temple One ft Neev Kennedy: Love The Fear (Tom Fall Remix)"
INDEX 01 21:00:00
TRACK 06 AUDIO
TITLE "Rank 1 & Jochen Miller ft Sarah Bettens: Wild & Perfect Day (Extended Mix)"
INDEX 01 27:13:00
TRACK 07 AUDIO
TITLE "Space Rockerz ft Ellie Lawson: So Out of Reach (Original Mix)"
INDEX 01 32:35:00
TRACK 08 AUDIO
TITLE "Fredda l & Fisher: Love You Call It (Beat Service Remix)"
INDEX 01 39:05:00
TRACK 09 AUDIO
TITLE "John O' Callaghan ft Cathy Burton: Perfection (Shogun Remix)"
INDEX 01 45:16:00
TRACK 10 AUDIO
TITLE "Gareth Emery ft Christina Novelli: Concrete Angel (Original Mix)"
INDEX 01 52:54:00
TRACK 11 AUDIO
TITLE "Dj Feel ft Loona: Ill Find Myself"
INDEX 01 59:11:00
TRACK 12 AUDIO
TITLE "John O' Callaghan & Kathryn Gallagher: Mess Of A Machine (Extended Mix)"
INDEX 01 64:36:00
TRACK 13 AUDIO
TITLE "Ashley Wallbridge ft Meighan Nealon: My Blood (Tydi Remix)"
INDEX 01 70:23:00
TRACK 14 AUDIO
TITLE "BT: Force Of Gravity (Orjan Nilsen Remix)"
INDEX 01 76:56:00
TRACK 15 AUDIO
TITLE "The Blizzard & Yuri Kane ft Relyk: Everything About You (Original Mix)"
INDEX 01 84:31:00
TRACK 16 AUDIO
TITLE "Boom Jinx ft Justine Suissa: Phoenix From The Flames (Club Mix)"
INDEX 01 91:22:00
TRACK 17 AUDIO
TITLE "Maor Levi ft Ashley Tomberlin: Chasing Love (Maor Levi Club Mix)"
INDEX 01 98:02:00
TRACK 18 AUDIO
TITLE "Emma Hewitt: Colours (Armin van Buuren Remix)"
INDEX 01 102:24:00
TRACK 19 AUDIO
TITLE "Kyau & Albert: This Love (Original Mix)"
INDEX 01 109:40:00
TRACK 20 AUDIO
TITLE "The Thrillseekers ft Fisher: The Last Time (Johan Malmgren 2012 Remix)"
INDEX 01 114:46:00



PERFORMER "(GT) GT vs Project C"
TITLE "Voices of Trance 083 (March 2012)"
FILE "VOT 2012 March" MP3
TRACK 01 AUDIO
PERFORMER "Matt Darey ft Leah"
TITLE "Hold Your Breath (Original Mix)"
INDEX 01 00:00:00
TRACK 02 AUDIO
PERFORMER "Cosmic Gate ft Emma Hewitt"
TITLE "Not Enough Time (Andy Duguid Remix)"
INDEX 01 04:30:00
TRACK 03 AUDIO
PERFORMER "Robbie Rivera ft Jes"
TITLE "Turn It Around (Original Mix)"
INDEX 01 10:00:00
TRACK 04 AUDIO
PERFORMER "Mads Arp ft Julie Harrington"
TITLE "Slow It Down (Space Rockerz Re-Run Remix)"
INDEX 01 15:30:00
TRACK 05 AUDIO
PERFORMER "Temple One ft Neev Kennedy"
TITLE "Love The Fear (Tom Fall Remix)"
INDEX 01 21:00:00
TRACK 06 AUDIO
PERFORMER "Rank 1 & Jochen Miller ft Sarah Bettens"
TITLE "Wild & Perfect Day (Extended Mix)"
INDEX 01 27:13:00
TRACK 07 AUDIO
PERFORMER "Space Rockerz ft Ellie Lawson"
TITLE "So Out of Reach (Original Mix)"
INDEX 01 32:35:00
TRACK 08 AUDIO
PERFORMER "Fredda l & Fisher"
TITLE "Love You Call It (Beat Service Remix)"
INDEX 01 39:05:00
TRACK 09 AUDIO
PERFORMER "John O' Callaghan ft Cathy Burton"
TITLE "Perfection (Shogun Remix)"
INDEX 01 45:16:00
TRACK 10 AUDIO
PERFORMER "Gareth Emery ft Christina Novelli"
TITLE "Concrete Angel (Original Mix)"
INDEX 01 52:54:00
TRACK 11 AUDIO
PERFORMER "Dj Feel ft Loona"
TITLE "Ill Find Myself"
INDEX 01 59:11:00
TRACK 12 AUDIO
PERFORMER "John O' Callaghan & Kathryn Gallagher"
TITLE "Mess Of A Machine (Extended Mix)"
INDEX 01 64:36:00
TRACK 13 AUDIO
PERFORMER "Ashley Wallbridge ft Meighan Nealon"
TITLE "My Blood (Tydi Remix)"
INDEX 01 70:23:00
TRACK 14 AUDIO
PERFORMER "BT"
TITLE "Force Of Gravity (Orjan Nilsen Remix)"
INDEX 01 76:56:00
TRACK 15 AUDIO
PERFORMER "The Blizzard & Yuri Kane ft Relyk"
TITLE "Everything About You (Original Mix)"
INDEX 01 84:31:00
TRACK 16 AUDIO
PERFORMER "Boom Jinx ft Justine Suissa"
TITLE "Phoenix From The Flames (Club Mix)"
INDEX 01 91:22:00
TRACK 17 AUDIO
PERFORMER "Maor Levi ft Ashley Tomberlin"
TITLE "Chasing Love (Maor Levi Club Mix)"
INDEX 01 98:02:00
TRACK 18 AUDIO
PERFORMER "Emma Hewitt"
TITLE "Colours (Armin van Buuren Remix)"
INDEX 01 102:24:00
TRACK 19 AUDIO
PERFORMER "Kyau & Albert"
TITLE "This Love (Original Mix)"
INDEX 01 109:40:00
TRACK 20 AUDIO
PERFORMER "The Thrillseekers ft Fisher"
TITLE "The Last Time (Johan Malmgren 2012 Remix)"
INDEX 01 114:46:00
Back to top
View user's profile Send private message Send e-mail
Mushymushroom80
Poster


Joined: 03 Aug 2008
Posts: 5
Location: Nottingham

uk.gif
PostPosted: Tue May 29, 2012 10:37 am    Post subject: Reply with quote

Wayhey!!!
_________________
Back to top
View user's profile Send private message
firstplace
Poster


Joined: 17 Oct 2004
Posts: 5

canada.gif
PostPosted: Tue Jun 05, 2012 5:04 am    Post subject: Reply with quote

Thanks guys...my employer, Uncle Sam thanks you too since I can actually be productive at my job today!!!
Back to top
View user's profile Send private message
FoReX
Poster


Joined: 23 Jul 2012
Posts: 1

blank.gif
PostPosted: Mon Jul 23, 2012 8:25 am    Post subject: Reply with quote

Thanks man..
Back to top
View user's profile Send private message
Display posts from previous:   
Post new topic   Reply to topic    Generation Trance Forum Index -> GT vs Project C (2012 - 2014) All times are GMT - 8 Hours
Page 1 of 1

 
Jump to:  
You cannot post new topics in this forum
You cannot reply to topics in this forum
You cannot edit your posts in this forum
You cannot delete your posts in this forum
You cannot vote in polls in this forum


Powered by phpBB © 2001, 2005 phpBB Group

Powered by CloudFlare