Generation Trance
Vote for GT  at The DJ List! Vote for GT and Project C at The DJ List! Vote for Project C  at The DJ List!
 FAQFAQ   SearchSearch   Chat   MemberlistMemberlist   UsergroupsUsergroups   RegisterRegister 
 ProfileProfile   Log in to check your private messagesLog in to check your private messages   Log inLog in 
VOT 055 November 2009 with Norin & Rad
Goto page Previous  1, 2, 3  Next
 
Post new topic   Reply to topic    Generation Trance Forum Index -> GT vs Project C (2008 - 2009)
View previous topic :: View next topic  

Do you like music?
Yes
0%
 0%  [ 0 ]
No
0%
 0%  [ 0 ]
Total Votes : 0

Author Message
colisseus
Poster


Joined: 26 Sep 2009
Posts: 1

mexico.gif
PostPosted: Sun Nov 29, 2009 11:11 pm    Post subject: Reply with quote

great


nice mixes!!!
Back to top
View user's profile Send private message
Section 8
Poster


Joined: 25 Nov 2007
Posts: 18

blank.gif
PostPosted: Mon Nov 30, 2009 1:05 am    Post subject: Reply with quote

sweet! Thanks guys!
Back to top
View user's profile Send private message
aamon
Poster


Joined: 20 Nov 2007
Posts: 4

croatia.gif
PostPosted: Mon Nov 30, 2009 2:48 am    Post subject: Reply with quote

thank you!!!
Very Happy
Back to top
View user's profile Send private message
Squallik
Poster


Joined: 22 Jan 2005
Posts: 16
Location: WaRsAw, PoLaNd

poland.gif
PostPosted: Mon Nov 30, 2009 3:58 am    Post subject: Reply with quote

Nice mix Very Happy Please add cue file to download Smile
Back to top
View user's profile Send private message
MoOnY
Poster


Joined: 05 Jul 2006
Posts: 84
Location: Hannover

germany.gif
PostPosted: Mon Nov 30, 2009 6:31 am    Post subject: Reply with quote

THANK YOU !!!!!!!!! =)
_________________
DJ GT & Project C in Germany ?! 2008? PLEEASE
Back to top
View user's profile Send private message
IanC
Poster


Joined: 11 Mar 2007
Posts: 15

uk.gif
PostPosted: Mon Nov 30, 2009 2:14 pm    Post subject: Reply with quote

com wrote:
A cue file would be great


Working on one now, almost done. Smile
Back to top
View user's profile Send private message Visit poster's website
IanC
Poster


Joined: 11 Mar 2007
Posts: 15

uk.gif
PostPosted: Mon Nov 30, 2009 2:33 pm    Post subject: Reply with quote

Okay, well I'm trying to post the finished cue file, but for some reason the forum is telling me:

Quote:
In order to try to prevent spammers, we do not allow our users to post URLs in any form until they have posted at least 10 legitimate posts and have been with us for more than 7 days.


This is despite me having over ten posts and being here for much longer than a week. Even if I remove the "DI.FM" reference in FILE entry of the cue file this happens.

Anyone have any ideas?[/quote]
Back to top
View user's profile Send private message Visit poster's website
IanC
Poster


Joined: 11 Mar 2007
Posts: 15

uk.gif
PostPosted: Mon Nov 30, 2009 2:34 pm    Post subject: Reply with quote

Working now:

Code:
Performer "Norin & Rad"
TITLE "Voices Of Trance 055 AM Mix"
FILE "Norin and Rad - DI.FM Vocal 1.mp3" MP3
  TRACK 01 AUDIO
    TITLE "Cass Fox - Touch Me (Mike Koglin vs. Jono Grant Remix)"
    INDEX 01 00:00:00
  TRACK 02 AUDIO
    TITLE "Moonbeam feat. Blackfeel Wite - First Night (Elevation Remix)"
    INDEX 01 08:59:32
  TRACK 03 AUDIO
    TITLE "Ohmna feat. Nurlaila - Key of Life (Marlo Remix)"
    INDEX 01 15:43:48
  TRACK 04 AUDIO
    TITLE "Kyau & Albert - Be There 4 U (Rafael Frost Remix)"
    INDEX 01 22:09:62
  TRACK 05 AUDIO
    TITLE "Cerf, Mitiska & Jaren - Beggin' You (Armin van Buuren Remix)"
    INDEX 01 29:57:14
  TRACK 06 AUDIO
    TITLE "Sean Tyas & Simon Patterson - For the Most Part (Marcus Schossow Remix)"
    INDEX 01 38:22:30
  TRACK 07 AUDIO
    TITLE "Roger Shah & Tenishia feat Lorilee - I'm Not God (Tenishia Mix)"
    INDEX 01 45:21:54
  TRACK 08 AUDIO
    TITLE "Masoud feat. Josie - Leave It All Behind (Tritonal Air Up There Mix)"
    INDEX 01 50:51:22
Back to top
View user's profile Send private message Visit poster's website
kurtnelle
Poster


Joined: 17 Jun 2006
Posts: 11

trinidadandtobago.gif
PostPosted: Mon Nov 30, 2009 3:01 pm    Post subject: Torrent Reply with quote

I guess this will be post 1 for me. Got to get that count up.

Is anyone working on a torrent btw, for the future readers of this forum?
Back to top
View user's profile Send private message
LindyM
Poster


Joined: 06 Jun 2005
Posts: 1
Location: Tampa, Florida

usa.gif
PostPosted: Mon Nov 30, 2009 6:06 pm    Post subject: Reply with quote

Yahoo !
Back to top
View user's profile Send private message Send e-mail Visit poster's website AIM Address Yahoo Messenger MSN Messenger
tranceaddict_cl
Poster


Joined: 27 Dec 2004
Posts: 284
Location: Punta Arenas, Chile

chile.gif
PostPosted: Mon Nov 30, 2009 6:47 pm    Post subject: Reply with quote

Thanks folks, been waitin' 4 news from u for a long time!! Happy to see you guys are still around.

Thanks for the mixes

Combinig both included files for PM Mix:

PERFORMER "GT & Project C"
TITLE "Voices Of Trance 055 PM Mix"
FILE "VOT055_PM_Mix.mp3" MP3
TRACK 01 AUDIO
PERFORMER "Dash Berlin ft Solid Sessions"
TITLE "Janeiro (Extended Mix)"
INDEX 01 00:00:00
TRACK 02 AUDIO
PERFORMER "Andy Tau & Touch Enable ft Olivia Martyn"
TITLE "Over You (Deepwide Remix)"
INDEX 01 07:46:22
TRACK 03 AUDIO
PERFORMER "Giuseppe Ottaviani ft Faith"
TITLE "Fallen (Original)"
INDEX 01 13:20:11
TRACK 04 AUDIO
PERFORMER "Tucandeo Feat Cat Martin"
TITLE "Novembers (Kiholm Vocal Remix)"
INDEX 01 18:43:46
TRACK 05 AUDIO
PERFORMER "DT8 Project"
TITLE "As The Days Grow Old (Steve Anderson Remix)"
INDEX 01 24:03:40
TRACK 06 AUDIO
PERFORMER "Philippe El Sisi Feat Aminda"
TITLE "You Never Know (Aly & Fila Remix)"
INDEX 01 30:05:22
TRACK 07 AUDIO
PERFORMER "Ridgewalkers ft El"
TITLE "Find (Indecent Noise Remix)"
INDEX 01 38:40:01
TRACK 08 AUDIO
PERFORMER "Dash Berlin Feat Emma Hewitt"
TITLE "Waiting (Sean Tyas Mix)"
INDEX 01 44:07:01
TRACK 09 AUDIO
PERFORMER "JOC ft Josie"
TITLE "Out Of Nowhere (Stoneface & Terminal Remix)"
INDEX 01 51:14:62
Back to top
View user's profile Send private message Send e-mail
Eluder
Poster


Joined: 31 Mar 2007
Posts: 8
Location: Toronto

canada.gif
PostPosted: Mon Nov 30, 2009 7:04 pm    Post subject: Reply with quote

Wow... love this mix! Can't wait to get this on my iPod and drive to it!
Keep up the great work folks!
Back to top
View user's profile Send private message
resonantfate
Poster


Joined: 03 Aug 2009
Posts: 1

blank.gif
PostPosted: Tue Dec 01, 2009 5:50 am    Post subject: Reply with quote

velocity wrote:
omega1n wrote:
Siiiiiiiiick!

sergio sucks... omg i remembered my login for this site lol


hah, yeah i just had to do that too. great to find some new material here. easily some of of my favorite DJs. they bring back great memories from my earlier days listening to di.fm's vocal trance channel. man, such great memories to go with such a great time Very Happy
Back to top
View user's profile Send private message
SnowUtopia
Poster


Joined: 12 Feb 2006
Posts: 1

usa.gif
PostPosted: Tue Dec 01, 2009 6:15 pm    Post subject: Reply with quote

Get your shit in order with mega upload hosting your mixes. Way to many pop ups. And to think I gave a couple bucks to this.
Back to top
View user's profile Send private message
!!!TED!!!
Poster


Joined: 26 Dec 2008
Posts: 1

blank.gif
PostPosted: Wed Dec 02, 2009 1:51 am    Post subject: Reply with quote

AWESOME MIXES!!!!

I was listening in the car, and when JOC ft Josie - Out Of Nowhere (Stoneface & Terminal Remix) hit....I was blown away!!!

Shocked
Back to top
View user's profile Send private message
kurtnelle
Poster


Joined: 17 Jun 2006
Posts: 11

trinidadandtobago.gif
PostPosted: Wed Dec 02, 2009 10:13 am    Post subject: Second Reply with quote

Post Number 2 Smile

When I get to 10 I'll post the link to the torrent for this thing...
Back to top
View user's profile Send private message
InfectedMushroom
Poster


Joined: 28 Jan 2008
Posts: 3

blank.gif
PostPosted: Wed Dec 02, 2009 3:49 pm    Post subject: Reply with quote

OWNAGE!!!!! Laughing
Back to top
View user's profile Send private message
kurtnelle
Poster


Joined: 17 Jun 2006
Posts: 11

trinidadandtobago.gif
PostPosted: Thu Dec 03, 2009 10:19 am    Post subject: Serious stuff. Reply with quote

I'm liking the mix
Back to top
View user's profile Send private message
Dj Stylez
Poster


Joined: 19 Jul 2005
Posts: 15

blank.gif
PostPosted: Thu Dec 03, 2009 10:20 am    Post subject: Reply with quote

Awesome mix you guys! And "ShowUtopia"..these guys have had there shyt together for a lot longer than you've been on here to just be easy and chill out. Thats on you if you want to spend extra money to d/l, or you can just patiently wait. Enjoy the vibes brother~
Back to top
View user's profile Send private message
dj_max_milo
Poster


Joined: 15 May 2009
Posts: 5

blank.gif
PostPosted: Thu Dec 03, 2009 11:13 am    Post subject: Reply with quote

Looking forward to press play Very Happy
Back to top
View user's profile Send private message
kurtnelle
Poster


Joined: 17 Jun 2006
Posts: 11

trinidadandtobago.gif
PostPosted: Thu Dec 03, 2009 7:09 pm    Post subject: Mix Reply with quote

can't wait to be able to post those magic links Smile Still liking the mix too
Back to top
View user's profile Send private message
Jerk
Poster


Joined: 07 Jul 2005
Posts: 4

usa.gif
PostPosted: Thu Dec 03, 2009 10:15 pm    Post subject: Reply with quote

Sweet! Always lovin! Guest mix starts off cool smooth, too.
_________________
Words...Meanings...Discernment
Back to top
View user's profile Send private message
cathy.andee
Poster


Joined: 06 Oct 2008
Posts: 2
Location: Bucuresti

romania.gif
PostPosted: Thu Dec 03, 2009 10:34 pm    Post subject: tribute 2 trance Reply with quote

thank you guys for the work you do!
Back to top
View user's profile Send private message Yahoo Messenger
peebee
Poster


Joined: 03 Aug 2005
Posts: 10

blank.gif
PostPosted: Fri Dec 04, 2009 4:41 am    Post subject: Reply with quote

Welcome Back!!! Just looked at the site after a delay of some months. My favorite tunes are back at work!!!!!!!!!!!!!!
Back to top
View user's profile Send private message
pipedowndjh
Da Seed


Joined: 12 Jan 2005
Posts: 1560
Location: West SIDE WA!

usa.gif
PostPosted: Fri Dec 04, 2009 6:45 am    Post subject: Reply with quote

thanks for the up guys!!
_________________
Currently working my ass off in school with a triple major of Spanish, Political Science, and Economics.
Back to top
View user's profile Send private message Send e-mail AIM Address MSN Messenger
Display posts from previous:   
Post new topic   Reply to topic    Generation Trance Forum Index -> GT vs Project C (2008 - 2009) All times are GMT - 8 Hours
Goto page Previous  1, 2, 3  Next
Page 2 of 3

 
Jump to:  
You cannot post new topics in this forum
You cannot reply to topics in this forum
You cannot edit your posts in this forum
You cannot delete your posts in this forum
You cannot vote in polls in this forum


Powered by phpBB © 2001, 2005 phpBB Group

Powered by CloudFlare