Generation Trance
Vote for GT  at The DJ List! Vote for GT and Project C at The DJ List! Vote for Project C  at The DJ List!
 FAQFAQ   SearchSearch   Chat   MemberlistMemberlist   UsergroupsUsergroups   RegisterRegister 
 ProfileProfile   Log in to check your private messagesLog in to check your private messages   Log inLog in 
VOT 054 October 2009 w/Rj Van Xetten
Goto page Previous  1, 2, 3  Next
 
Post new topic   Reply to topic    Generation Trance Forum Index -> GT vs Project C (2008 - 2009)
View previous topic :: View next topic  

Do you like music?
Yes
0%
 0%  [ 0 ]
No
0%
 0%  [ 0 ]
Total Votes : 0

Author Message
moda_way
Poster


Joined: 16 Sep 2005
Posts: 3
Location: Cincinnati

usa.gif
PostPosted: Thu Oct 22, 2009 10:02 am    Post subject: Reply with quote

Great stuff as always.
Back to top
View user's profile Send private message Visit poster's website AIM Address
IanC
Poster


Joined: 11 Mar 2007
Posts: 15

uk.gif
PostPosted: Thu Oct 22, 2009 10:07 am    Post subject: Reply with quote

Great to see the downloads back. Another wonderful set, as always! Nice one. Very Happy
Back to top
View user's profile Send private message Visit poster's website
mixer dj
Poster


Joined: 11 Jun 2005
Posts: 30
Location: Managua

nicaragua.gif
PostPosted: Thu Oct 22, 2009 10:31 am    Post subject: Reply with quote

I don`t see cue, for this compilation!! any body upload that!!
Back to top
View user's profile Send private message Visit poster's website MSN Messenger
ducatisearch
Poster


Joined: 01 Oct 2007
Posts: 13
Location: Irvine, CA

usa.gif
PostPosted: Thu Oct 22, 2009 10:34 am    Post subject: Reply with quote

mixer dj wrote:
I don`t see cue, for this compilation!! any body upload that!!


+1 on getting the cue for these.
Back to top
View user's profile Send private message
bohica
Poster


Joined: 20 Oct 2009
Posts: 1

blank.gif
PostPosted: Thu Oct 22, 2009 10:56 am    Post subject: Reply with quote

Thanks!
I happened to tune in at DI.FM yesterday and loved it. I had to get it and this seems to be the only place...
Back to top
View user's profile Send private message
_los_
Poster


Joined: 31 Oct 2005
Posts: 5
Location: Santa Cruz, CA

usa.gif
PostPosted: Thu Oct 22, 2009 12:49 pm    Post subject: Reply with quote

thanks! love all these mixes, and have missed them. than you for putting out such awesome stuff.
Back to top
View user's profile Send private message AIM Address
Gish
Poster


Joined: 30 Apr 2005
Posts: 2

blank.gif
PostPosted: Thu Oct 22, 2009 1:40 pm    Post subject: Reply with quote

Thanks for the mixes guys! It hasn't been the same without some new DJ Gt and Project C to download!
Back to top
View user's profile Send private message
DeSoler
Poster


Joined: 27 Sep 2005
Posts: 4

spain.gif
PostPosted: Thu Oct 22, 2009 1:53 pm    Post subject: Reply with quote

where is the cueee!!!?? jajaja
Back to top
View user's profile Send private message
R1ft
Poster


Joined: 03 Aug 2008
Posts: 29

usa.gif
PostPosted: Thu Oct 22, 2009 4:24 pm    Post subject: Reply with quote

DeSoler wrote:
where is the cueee!!!?? jajaja


uhhh... isent the cue in the .rar you downloaded? mine is...




thanks for getting the DL links up so fast!
Back to top
View user's profile Send private message
RaptoR
Poster


Joined: 08 Feb 2007
Posts: 3
Location: Plovdiv

bulgaria.gif
PostPosted: Fri Oct 23, 2009 2:35 am    Post subject: Reply with quote

Finally new downloads from the collest guys around! Why did you stop uploading the VOT series? Last time I downloaded something was many months ago. Am I missing something? I mean - I only download when I receive an e-mail...
Back to top
View user's profile Send private message
betanet
Poster


Joined: 17 Sep 2007
Posts: 6
Location: Greece

greece.gif
PostPosted: Fri Oct 23, 2009 3:50 am    Post subject: Reply with quote

Corrected cue file for the PM Mix:
Code:
Performer "GT & Project C"
TITLE "Voices Of Trance 054 PM Mix"
FILE "Generation Trance - VOT 054 PM Mix.mp3" MP3
  TRACK 01 AUDIO
    TITLE "Cosmic Gate ft Aruna - Under Your Spell (Duderstadt Remix)"
    INDEX 01 00:00:00
  TRACK 02 AUDIO
    TITLE "Ronski Speed Pres Sun Decade ft Emma Hewitt - Lasting Light (Original Mix)"
    INDEX 01 07:09:63
  TRACK 03 AUDIO
    TITLE "Tritonal ft Christina Soto - Crash Into Reason (Original Mix)"
    INDEX 01 13:48:69
  TRACK 04 AUDIO
    TITLE "Richard Durand - Always The Sun (Falldown Mix)"
    INDEX 01 19:44:42
  TRACK 05 AUDIO
    TITLE "Jan Johnston - Sleeping Satellite (Kenneth Thomas Mix)"
    INDEX 01 27:52:11
  TRACK 06 AUDIO
    TITLE "Ferry Corsten - We Belong (Lange Remix)"
    INDEX 01 35:23:53
  TRACK 07 AUDIO
    TITLE "Andy Moor & Ashley Wallbridge ft Meighan Nealon - Faces (Ben Gold Vocal Mix)"
    INDEX 01 40:48:35
  TRACK 08 AUDIO
    TITLE "JOC ft Lo-Fi Sugar - Never Fade Away (Giuseppe Ottaviani Remix)"
    INDEX 01 46:36:50
  TRACK 09 AUDIO
    TITLE "Blank And Jones - The Nightfly"
    INDEX 01 53:19:59
Back to top
View user's profile Send private message
betanet
Poster


Joined: 17 Sep 2007
Posts: 6
Location: Greece

greece.gif
PostPosted: Fri Oct 23, 2009 4:11 am    Post subject: Reply with quote

And a new cue file for the AM Mix:
Code:
Performer "GT & Project C"
TITLE "Voices Of Trance 054 AM Mix Guest Rj Van Xetten"
FILE "Generation Trance - VOT 054 AM Mix Guest Rj Van Xetten.mp3" MP3
  TRACK 01 AUDIO
    TITLE "Smart Apes vs Anna Lee - Perfect (Mobilize Remix)"
    INDEX 01 00:00:00
  TRACK 02 AUDIO
    TITLE "Macel Woods - Inside me"
    INDEX 01 08:29:00
  TRACK 03 AUDIO
    TITLE "Tydi - You Walk Away"
    INDEX 01 16:39:00
  TRACK 04 AUDIO
    TITLE "HeatBeat - Because of You (Dark Mix)"
    INDEX 01 24:05:00
  TRACK 05 AUDIO
    TITLE "Ferry Corsten - Made of Love (Super8 & Tab Mix)"
    INDEX 01 28:23:00
  TRACK 06 AUDIO
    TITLE "Armin Van Buuren - Unforgivable (Cerf Mitiska Remix)"
    INDEX 01 35:04:00
  TRACK 07 AUDIO
    TITLE "George Acosta - Someone (Vox Mix)"
    INDEX 01 42:42:00
  TRACK 08 AUDIO
    TITLE "ColdBlue - FreeFalling (Cold Blue Mix)"
    INDEX 01 47:58:00
  TRACK 09 AUDIO
    TITLE "Rex Mundi - Nothing at all (Elevation Mix)"
    INDEX 01 54:23:59
Back to top
View user's profile Send private message
DeSoler
Poster


Joined: 27 Sep 2005
Posts: 4

spain.gif
PostPosted: Fri Oct 23, 2009 6:24 am    Post subject: Reply with quote

thaaaanks for the cue's!!! I love this session! Very Happy
Back to top
View user's profile Send private message
Arctic_Trance_Fiend
Poster


Joined: 22 Feb 2007
Posts: 5
Location: Alaska

usa.gif
PostPosted: Fri Oct 23, 2009 7:19 am    Post subject: Reply with quote

Very Happy

Track list looks awesome, cannot wait for it to finish.

Incase no one has said it recently, you seriously kick a**.

I have been listening to your music for yearsss and I am always afraid that I'll go to login one day and find the site gone, it's terrifying. Really.

Anyway, spreading the trance love in Alaska.

Cheers
Back to top
View user's profile Send private message MSN Messenger
DJSKIP
Poster


Joined: 01 Dec 2004
Posts: 3
Location: The Netherlands

netherlands.gif
PostPosted: Fri Oct 23, 2009 8:27 am    Post subject: Reply with quote

Last time I was here--> 3 years ago!

Boysss i've missed it!



THNX alot!!!
Back to top
View user's profile Send private message
Tman222
Poster


Joined: 20 Dec 2006
Posts: 7

blank.gif
PostPosted: Fri Oct 23, 2009 11:57 am    Post subject: Reply with quote

04. Richard Durand - Always The Sun (Falldown Mix) -- Awesome choice.

Loving the mix so far. Keep it up!
Back to top
View user's profile Send private message
x0r
Poster


Joined: 30 Sep 2004
Posts: 7

germany.gif
PostPosted: Fri Oct 23, 2009 12:50 pm    Post subject: Reply with quote

thx =)
Back to top
View user's profile Send private message
ducatisearch
Poster


Joined: 01 Oct 2007
Posts: 13
Location: Irvine, CA

usa.gif
PostPosted: Fri Oct 23, 2009 3:36 pm    Post subject: Reply with quote

Thanks for the cue files Betanet!
Back to top
View user's profile Send private message
Juanma
Poster


Joined: 05 Aug 2005
Posts: 2

blank.gif
PostPosted: Sat Oct 24, 2009 3:05 am    Post subject: Great mix Reply with quote

Awesome, Great mix guys. I'm enjoying it Smile
Back to top
View user's profile Send private message
Squallik
Poster


Joined: 22 Jan 2005
Posts: 16
Location: WaRsAw, PoLaNd

poland.gif
PostPosted: Sat Oct 24, 2009 4:05 am    Post subject: Reply with quote

Great mix Mr. Green
Back to top
View user's profile Send private message
Squallik
Poster


Joined: 22 Jan 2005
Posts: 16
Location: WaRsAw, PoLaNd

poland.gif
PostPosted: Sat Oct 24, 2009 5:19 am    Post subject: Reply with quote

Where is cue file to AM Mix Question
Back to top
View user's profile Send private message
chrstsm
Poster


Joined: 02 Jan 2006
Posts: 4

usa.gif
PostPosted: Sun Oct 25, 2009 8:13 am    Post subject: thanks for the mixes, but Reply with quote

thanks for the mixes, but which program will play the downloads? I haven't downloaded since this site had a working stream. Please help.
Back to top
View user's profile Send private message
tranceaddict_cl
Poster


Joined: 27 Dec 2004
Posts: 286
Location: Punta Arenas, Chile

chile.gif
PostPosted: Sun Oct 25, 2009 9:00 am    Post subject: Reply with quote

Squallik wrote:
Where is cue file to AM Mix Question


it is in this same page
Back to top
View user's profile Send private message Send e-mail
Squallik
Poster


Joined: 22 Jan 2005
Posts: 16
Location: WaRsAw, PoLaNd

poland.gif
PostPosted: Sun Oct 25, 2009 11:47 am    Post subject: Reply with quote

tranceaddict_cl wrote:
Squallik wrote:
Where is cue file to AM Mix Question


it is in this same page


But file, not tracklist Very Happy
Back to top
View user's profile Send private message
Squallik
Poster


Joined: 22 Jan 2005
Posts: 16
Location: WaRsAw, PoLaNd

poland.gif
PostPosted: Sun Oct 25, 2009 11:49 am    Post subject: Reply with quote

Someone upload here , only *.cue file Question Pls Very Happy
Back to top
View user's profile Send private message
Display posts from previous:   
Post new topic   Reply to topic    Generation Trance Forum Index -> GT vs Project C (2008 - 2009) All times are GMT - 8 Hours
Goto page Previous  1, 2, 3  Next
Page 2 of 3

 
Jump to:  
You cannot post new topics in this forum
You cannot reply to topics in this forum
You cannot edit your posts in this forum
You cannot delete your posts in this forum
You cannot vote in polls in this forum


Powered by phpBB © 2001, 2005 phpBB Group

Powered by CloudFlare