Generation Trance
Vote for GT  at The DJ List! Vote for GT and Project C at The DJ List! Vote for Project C  at The DJ List!
 FAQFAQ   SearchSearch   Chat   MemberlistMemberlist   UsergroupsUsergroups   RegisterRegister 
 ProfileProfile   Log in to check your private messagesLog in to check your private messages   Log inLog in 
VOT 047 March with Pearl & Pelio
Goto page Previous  1, 2
 
Post new topic   Reply to topic    Generation Trance Forum Index -> GT vs Project C (2008 - 2009)
View previous topic :: View next topic  
Author Message
placation
Poster


Joined: 19 Feb 2005
Posts: 7
Location: Orlando

usa.gif
PostPosted: Wed Jun 24, 2009 1:26 pm    Post subject: Re: cue sheet for pearl and pelio? Reply with quote

cdwaves wrote:
can you add the cue sheet for the pearl and pelio mix?? thankssss


Did I miss the cue sheet somewhere for pearl & pelio?
Back to top
View user's profile Send private message
maher67s
Poster


Joined: 17 Dec 2004
Posts: 13

usa.gif
PostPosted: Wed Jul 01, 2009 9:51 am    Post subject: Pearl & Pelio Cue Sheet Reply with quote

just made this cue sheet by listening to the music...

Performer "Pearl & Pelio"
TITLE "VOT 47 Pearl & Pelio"
FILE "VOT 47 Pearl & Pelio.mp3" MP3
TRACK 01 AUDIO
TITLE "Ride (Tiesto remix - Pearl & Pelio Intro Edit)"
PERFORMER "Cary Brothers"
INDEX 01 00:00:00
TRACK 02 AUDIO
TITLE "Disarm (Randy Boyer remix)"
PERFORMER "Smashing Pumpkins"
INDEX 01 02:15:00
TRACK 03 AUDIO
TITLE "Don't Trust me When the Lights Go Out (Pearl & Pelio Mashup)"
PERFORMER "Ross & Buddy vs 3oh3"
INDEX 01 05:50:00
TRACK 04 AUDIO
TITLE "Made of Love (Duderstadt remix)"
PERFORMER "Ferry Corsten"
INDEX 01 10:50:00
TRACK 05 AUDIO
TITLE "Run Away Blue Monday (Pearl & Pelio Mashup)"
PERFORMER "Dennis Sheperd vs Kurd Maverick"
INDEX 01 15:00:00
TRACK 06 AUDIO
TITLE "Floating Beyond (Lange remix)"
PERFORMER "Bartlett & Dyor"
INDEX 01 19:19:00
TRACK 07 AUDIO
TITLE "Diesel Power (Pearl & Pelio Mashup)"
PERFORMER "Cosmic Gate vs Prodigy"
INDEX 01 24:48:00
TRACK 08 AUDIO
TITLE "Let There Be A Wonderwall (Pearl & Pelio Mashup) "
PERFORMER "Rank 1 vs Oasis"
INDEX 01 31:48:00
TRACK 09 AUDIO
TITLE "Passively Aggressively Going Back to San Fran (Pearl & Pelio Mashup)"
PERFORMER "Placebo vs Nic Chagall"
INDEX 01 34:00:00
TRACK 10 AUDIO
TITLE "Clear Blue Water (Mike Shiver remix - Pearl & Pelio Edit)"
PERFORMER "Oceanlab feat. Justine Suissa"
INDEX 01 41:15:00
TRACK 11 AUDIO
TITLE "Champagne Super Nova is Alive (Pearl & Pelio Mashup)"
PERFORMER "Randy Boyer vs Oasis"
INDEX 01 44:55:00
TRACK 12 AUDIO
TITLE "Colliding Stones One More Time (Pearl & Pelio Mashup)"
PERFORMER "Ian Betts & Dan Stone vs Daft Punk"
INDEX 01 51:30:00
TRACK 13 AUDIO
TITLE "Are You With Me to Rotterdam (Pearl & Pelio Mashup)"
PERFORMER "The Potbelleez vs JoC"
INDEX 01 55:14:00
TRACK 14 AUDIO
TITLE "If I Could Fly (Outro)"
PERFORMER "Joe Satriani"
INDEX 01 59:11:00
Back to top
View user's profile Send private message Visit poster's website
dj_max_milo
Poster


Joined: 15 May 2009
Posts: 5

blank.gif
PostPosted: Thu Dec 03, 2009 2:45 pm    Post subject: Reply with quote

The tracklists looks tasty Very Happy

Me like
Back to top
View user's profile Send private message
Kitten99
Poster


Joined: 14 Jul 2007
Posts: 1
Location: The Bluest City in Texas

usa.gif
PostPosted: Fri Nov 05, 2010 4:41 pm    Post subject: Triff as ever!!! Reply with quote

Razz Y'all effing ROCK, per usual!!! Thanks for the links, in this case, slow is waaaaaay better than nothing!! Happy weekend, dudes!! Laughing
_________________
"The universe is change; our life is what our thoughts make it."
Marcus Aurelius Antoninus, Meditations
Back to top
View user's profile Send private message
Display posts from previous:   
Post new topic   Reply to topic    Generation Trance Forum Index -> GT vs Project C (2008 - 2009) All times are GMT - 8 Hours
Goto page Previous  1, 2
Page 2 of 2

 
Jump to:  
You cannot post new topics in this forum
You cannot reply to topics in this forum
You cannot edit your posts in this forum
You cannot delete your posts in this forum
You cannot vote in polls in this forum


Powered by phpBB © 2001, 2005 phpBB Group

Powered by CloudFlare