Generation Trance
Vote for GT  at The DJ List! Vote for GT and Project C at The DJ List! Vote for Project C  at The DJ List!
 FAQFAQ   SearchSearch   Chat   MemberlistMemberlist   UsergroupsUsergroups   RegisterRegister 
 ProfileProfile   Log in to check your private messagesLog in to check your private messages   Log inLog in 
VOT 046 February with Moo vs Randall Scott
Goto page 1, 2  Next
 
Post new topic   Reply to topic    Generation Trance Forum Index -> GT vs Project C (2008 - 2009)
View previous topic :: View next topic  
Author Message
Project C
Da Bro


Joined: 29 Jul 2004
Posts: 2082
Location: OC

usa.gif
PostPosted: Mon Feb 16, 2009 10:30 pm    Post subject: VOT 046 February with Moo vs Randall Scott Reply with quote

Sorry for the delay and its not torrented. We have been really busy so here's a megaupload link for now. Thank you for your support.

1st Hour (AM Mix) - GT vs Project C

01. Above & Beyond vs. Mr. Pit - Shana Can't Sleep (The Black Army Mashup)
02. AVB ft Cathy Burton - Rain (Cosmic Gate Remix)
03. Holden & Thompson - Come To Me (Mat Zo Remix)
04. Filterheadz - Your Eyes (Maor Levi Deep Mix)
05. Dash Berlin ft Cerf, Mitiska & Jaren - Man On The Run (Original Vocal Mix)
06. Candize - All I Want (DanSummerRemix)
07. Will Holland - Timeless (Filo & Peri Remix)
08. DT8 Project - Destination (Mark Eteson Remix)
09. Nadia Ali - Love Story (Andy Moor Vocal Mix)
10. Ferry Corsten ft Betsie Larkin - Made of Love (Original Extended Mix)


2nd Hour (PM Mix) - Moo vs Randall Scott

01. Armiv van Buuren feat Sharon Den Adel - In & Out Of Love
02. Tyler Michaud, Marcie - Dirty Girl (Original Mix)
03. OceanLab - Beautiful Together (Signalrunners Perfect Century Mix)
04. Acafool - She's Ready (Dub Mix)
05. Ferry Corsten feat Guru - Junk (Flashover Mix)
06. Stereo Type, Screwface - Balls To The Wall (Stereo:Typical Part 2 Mix)
07. Ferry Corsten - Watch Out (Extended Mix)
08. Pyramid - Wickedest Combination feat IC3 (Original Mix)
09. Filo & Peri vs Serge Devant - Something Special (Original Mix)
10. Santiago Nino - Stereo Love feat Jaren (Tyler Michaud Remix)
11. Armin van Buuren - The Sound of Goodbye (Simon & Shaker Remix)
12. Stereo Type, Screwface, Ctrl Z ft. Vent & Bex Riley - Burnout (Original Mix)

HTTP DOWNLOADS: Try a different server if one is too slow.

MIRROR #1:
Hour 1 Download MP3 (Right-click -> Save-Link-As)
Hour 1 Download CUE (Right-click -> Save-Link-As)

Hour 2 Download MP3 (Right-click -> Save-Link-As)
Hour 2 Download CUE (Right-click -> Save-Link-As)
_________________
www.generationtrance.com


Last edited by Project C on Wed May 13, 2009 3:55 pm; edited 2 times in total
Back to top
View user's profile Send private message Send e-mail Visit poster's website AIM Address Yahoo Messenger
prodigy
Poster


Joined: 17 Nov 2005
Posts: 1

usa.gif
PostPosted: Tue Feb 17, 2009 1:38 pm    Post subject: Awesome! Reply with quote

Loved the mix... hope to hear more soon! :D
Back to top
View user's profile Send private message
Moo
Da Lazy Chink


Joined: 04 Oct 2004
Posts: 850

usa.gif
PostPosted: Tue Feb 17, 2009 6:20 pm    Post subject: Reply with quote

Link for Moo vs Scott Randall:

http://files.filefront.com/Moo+vs+Randall+Scott+Vo6zip/;13312889;/fileinfo.html

Thanks for tuning in. Cool
_________________
http://www.house-mixes.com/profile/dj-moo
https://soundcloud.com/frostymoo
http://www.mixcloud.com/charliemoo
Back to top
View user's profile Send private message Send e-mail
DJBacardio
Poster


Joined: 02 Jan 2008
Posts: 11

blank.gif
PostPosted: Wed Feb 18, 2009 3:17 pm    Post subject: Reply with quote

nice mix Cool Cool
Back to top
View user's profile Send private message
Chrazy
Poster


Joined: 16 Apr 2008
Posts: 4

sweden.gif
PostPosted: Wed Feb 25, 2009 5:19 am    Post subject: Reply with quote

Pretty awesome mix! A little bit too much of the UK house songs for my taste but all in all a really good mixture!
Back to top
View user's profile Send private message
A55M45T3R
Poster


Joined: 26 Jun 2006
Posts: 1

blank.gif
PostPosted: Sat Mar 07, 2009 12:39 am    Post subject: Reply with quote

T Mix-Mad Creation sure kicks ass Smile
Back to top
View user's profile Send private message
ben3283
Poster


Joined: 09 Nov 2008
Posts: 3
Location: Florida

usa.gif
PostPosted: Sat Mar 14, 2009 11:34 am    Post subject: Reply with quote

This is a really great mix, I love the fusion in the middle!
Back to top
View user's profile Send private message
Squallik
Poster


Joined: 22 Jan 2005
Posts: 16
Location: WaRsAw, PoLaNd

poland.gif
PostPosted: Thu Mar 19, 2009 12:29 pm    Post subject: Reply with quote

Nice mix Very Happy
Back to top
View user's profile Send private message
Jeffito123
Poster


Joined: 24 Dec 2004
Posts: 25

usa.gif
PostPosted: Sun Mar 29, 2009 11:21 am    Post subject: Reply with quote

Smile Thx Moo
_________________
JeffysWorld.com

Back to top
View user's profile Send private message Visit poster's website
com
Poster


Joined: 15 Sep 2006
Posts: 12

newzealand.gif
PostPosted: Sat Apr 04, 2009 2:52 am    Post subject: Reply with quote

Great mix, loving it, thanks! Smile
Back to top
View user's profile Send private message
CtHulHu
Poster


Joined: 22 May 2005
Posts: 35

belgium.gif
PostPosted: Wed May 13, 2009 9:51 pm    Post subject: Reply with quote

again, thank you guys for your big work here Smile
Back to top
View user's profile Send private message
choudhrysaab
Poster


Joined: 25 Apr 2005
Posts: 9
Location: Toronto, ON.

canada.gif
PostPosted: Thu May 14, 2009 8:46 pm    Post subject: Reply with quote

I'm sure I'm gonna enjoy the tracks. Thank you!
_________________
Trance Music = Tranquility!
Back to top
View user's profile Send private message Visit poster's website AIM Address Yahoo Messenger
MoOnY
Poster


Joined: 05 Jul 2006
Posts: 84
Location: Hannover

germany.gif
PostPosted: Fri May 15, 2009 1:54 am    Post subject: Reply with quote

MAN THANKKKSS

i love the part with dash berlin, cerf etc.. so epic.. beautiful
_________________
DJ GT & Project C in Germany ?! 2008? PLEEASE
Back to top
View user's profile Send private message
HiDDeN.1
Poster


Joined: 30 Dec 2006
Posts: 13

netherlands.gif
PostPosted: Sat May 16, 2009 12:48 am    Post subject: Reply with quote

Thanks.......
Merci...
Dankje... Very Happy
Back to top
View user's profile Send private message
maher67s
Poster


Joined: 17 Dec 2004
Posts: 13

usa.gif
PostPosted: Sun May 17, 2009 8:39 pm    Post subject: Missing Cue sheet Reply with quote

Just Downloaded and unzipped the file, the cue sheet was unavailable - can you please post a link for it here?
Back to top
View user's profile Send private message Visit poster's website
Moo
Da Lazy Chink


Joined: 04 Oct 2004
Posts: 850

usa.gif
PostPosted: Mon May 18, 2009 6:37 pm    Post subject: Reply with quote

here is the cue sheet:

PERFORMER "Moo vs Randall Scott"
TITLE "VOT 046"
FILE "Moo vs Randall Scott - VOT 046.mp3" MP3
TRACK 01 AUDIO
TITLE "In & Out Of Love"
PERFORMER "Armiv van Buuren feat Sharon Den Adel"
INDEX 01 00:00:00
TRACK 02 AUDIO
TITLE "Dirty Girl (Original Mix)"
PERFORMER "Tyler Michaud, Marcie"
INDEX 01 05:37:50
TRACK 03 AUDIO
TITLE "Beautiful Together (Signalrunners Perfect Century Mix)"
PERFORMER "OceanLab"
INDEX 01 11:47:50
TRACK 04 AUDIO
TITLE "She's Ready (Dub Mix)"
PERFORMER "Acafool"
INDEX 01 19:10:50
TRACK 05 AUDIO
TITLE "Junk (Flash Over Mix)"
PERFORMER "Ferry Corsten feat Guru"
INDEX 01 22:44:50
TRACK 06 AUDIO
TITLE "Balls To The Wall (Stereo:Typical Part 2 Mix)"
PERFORMER "Stereo Type, Screwface"
INDEX 01 28:09:50
TRACK 07 AUDIO
TITLE "Watch Out (Extended Mix)"
PERFORMER "Ferry Corsten"
INDEX 01 31:58:00
TRACK 08 AUDIO
TITLE "Wickedest Combination feat IC3 (Original Mix)"
PERFORMER "Pyramid"
INDEX 01 36:36:00
TRACK 09 AUDIO
TITLE "Something Special (Original Mix)"
PERFORMER "Filo & Peri vs Serge Devant"
INDEX 01 42:18:00
TRACK 10 AUDIO
TITLE "Stereo Love feat Jaren (Tyler Michaud Remix)"
PERFORMER "Santiago Nino"
INDEX 01 46:42:00
TRACK 11 AUDIO
TITLE "The Sound of Goodbye (Simon & Shaker Remix)"
PERFORMER "Armin van Buuren"
INDEX 01 52:13:00
TRACK 12 AUDIO
TITLE "Burnout feat Vent & Bex Riley (Original Mix)"
PERFORMER "Stereo Type, Screwface"
INDEX 01 58:07:00
_________________
http://www.house-mixes.com/profile/dj-moo
https://soundcloud.com/frostymoo
http://www.mixcloud.com/charliemoo
Back to top
View user's profile Send private message Send e-mail
slickgino
Poster


Joined: 01 Oct 2004
Posts: 16

canada.gif
PostPosted: Tue May 19, 2009 3:20 pm    Post subject: Reply with quote

thanks Proj C and Moo!
Back to top
View user's profile Send private message
DerschMR2
Poster


Joined: 01 Apr 2005
Posts: 419

canada.gif
PostPosted: Tue May 19, 2009 4:28 pm    Post subject: Reply with quote

killer mix! Thanks for the set
Back to top
View user's profile Send private message
Ice NoSweat
Poster


Joined: 25 Apr 2006
Posts: 25

netherlands.gif
PostPosted: Mon May 25, 2009 12:13 pm    Post subject: Reply with quote

Thanks, great mix. Cool
_________________
Ice

Back to top
View user's profile Send private message
jorge.rzepka
Poster


Joined: 14 Sep 2008
Posts: 1
Location: PVR

mexico.gif
PostPosted: Mon May 25, 2009 3:47 pm    Post subject: TKs Reply with quote

Tks a lot for u excellent music Very Happy
Back to top
View user's profile Send private message
IanC
Poster


Joined: 11 Mar 2007
Posts: 15

uk.gif
PostPosted: Thu Jun 11, 2009 12:00 pm    Post subject: Reply with quote

Moo wrote:
Link for Moo vs Scott Randall:

...

Thanks for tuning in. Cool


Does anyone happen to have a working link for Moo and Scott's guest mix? I missed it. Sad
Back to top
View user's profile Send private message Visit poster's website
Moo
Da Lazy Chink


Joined: 04 Oct 2004
Posts: 850

usa.gif
PostPosted: Mon Jun 15, 2009 6:46 pm    Post subject: Reply with quote

IanC wrote:
Moo wrote:
Link for Moo vs Scott Randall:

...

Thanks for tuning in. Cool


Does anyone happen to have a working link for Moo and Scott's guest mix? I missed it. Sad


tada!!! new link.. sorry it took a while:

Voices of Trance 046 (Feb 2009): http://www.megaupload.com/?d=8SY1SKSQ
_________________
http://www.house-mixes.com/profile/dj-moo
https://soundcloud.com/frostymoo
http://www.mixcloud.com/charliemoo
Back to top
View user's profile Send private message Send e-mail
IanC
Poster


Joined: 11 Mar 2007
Posts: 15

uk.gif
PostPosted: Fri Jul 03, 2009 4:59 am    Post subject: Reply with quote

Moo wrote:
IanC wrote:
Moo wrote:
Link for Moo vs Scott Randall:

...

Thanks for tuning in. Cool


Does anyone happen to have a working link for Moo and Scott's guest mix? I missed it. Sad


tada!!! new link.. sorry it took a while:

Voices of Trance 046 (Feb 2009): ...


Nice one, much appreciated.

I'll get a fast mirror of this and others sorted soon, a little more permanent than Megaupload. Wink
Back to top
View user's profile Send private message Visit poster's website
Moo
Da Lazy Chink


Joined: 04 Oct 2004
Posts: 850

usa.gif
PostPosted: Sat Jul 04, 2009 5:11 pm    Post subject: Reply with quote

IanC wrote:
Moo wrote:
IanC wrote:
Moo wrote:
Link for Moo vs Scott Randall:

...

Thanks for tuning in. Cool


Does anyone happen to have a working link for Moo and Scott's guest mix? I missed it. Sad


tada!!! new link.. sorry it took a while:

Voices of Trance 046 (Feb 2009): ...


Nice one, much appreciated.

I'll get a fast mirror of this and others sorted soon, a little more permanent than Megaupload. Wink


that'll be dope, thanks
_________________
http://www.house-mixes.com/profile/dj-moo
https://soundcloud.com/frostymoo
http://www.mixcloud.com/charliemoo
Back to top
View user's profile Send private message Send e-mail
IanC
Poster


Joined: 11 Mar 2007
Posts: 15

uk.gif
PostPosted: Tue Jul 07, 2009 8:07 am    Post subject: Re: VOT 046 February with Moo vs Randall Scott Reply with quote

Project C wrote:
Sorry for the delay and its not torrented. We have been really busy so here's a megaupload link for now. Thank you for your support.

VOT 046 (February 2009)

01. Above & Beyond vs. Mr. Pit - Shana Can't Sleep (The Black Army Mashup)
02. AVB ft Cathy Burton - Rain (Cosmic Gate Remix)
03. Holden & Thompson - Come To Me (Mat Zo Remix)
04. Filterheadz - Your Eyes (Maor Levi Deep Mix)
05. Dash Berlin ft Cerf, Mitiska & Jaren - Man On The Run (Original Vocal Mix)
06. Candize - All I Want (DanSummerRemix)
07. Will Holland - Timeless (Filo & Peri Remix)
08. DT8 Project - Destination (Mark Eteson Remix)
09. Nadia Ali - Love Story (Andy Moor Vocal Mix)
10. Ferry Corsten ft Betsie Larkin - Made of Love (Original Extended Mix)


Figured I'd create a cue sheet for the GT vs. Project C mix. Let me know of any errors.

Code:
PERFORMER "GT vs. Project C"
TITLE "Voices Of Trance 046 (February 2009)"
FILE "GT_vs_Project_C_-_Voices_Of_Trance_046_(February_2009).mp3" MP3
TRACK 01 AUDIO
    TITLE "Shana Can't Sleep (The Black Army Mashup)"
    PERFORMER "Above & Beyond vs. Mr. Pit"
    INDEX 01 00:00:00
  TRACK 02 AUDIO
    TITLE "Rain (Cosmic Gate Remix)"
    PERFORMER "Armin van Buuren feat. Cathy Burton"
    INDEX 01 06:46:07
  TRACK 03 AUDIO
    TITLE "Come To Me (Mat Zo Remix)"
    PERFORMER "Holden & Thompson"
    INDEX 01 14:31:31
  TRACK 04 AUDIO
    TITLE "Your Eyes (Maor Levi Deep Mix)"
    PERFORMER "Filterheadz"
    INDEX 01 19:51:22
  TRACK 05 AUDIO
    TITLE "Man On The Run (Original Vocal Mix)"
    PERFORMER "Dash Berlin feat. Cerf, Mitiska & Jaren"
    INDEX 01 26:38:32
  TRACK 06 AUDIO
    TITLE "All I Want (Dan Summer Remix)"
    PERFORMER "Candize"
    INDEX 01 33:29:20
  TRACK 07 AUDIO
    TITLE "Timeless (Filo & Peri Remix)"
    PERFORMER "Will Holland"
    INDEX 01 40:31:01
  TRACK 08 AUDIO
    TITLE "Destination (Mark Eteson Remix)"
    PERFORMER "DT8 Project"
    INDEX 01 43:54:46
  TRACK 09 AUDIO
    TITLE "Love Story (Andy Moor Vocal Mix)"
    PERFORMER "Nadia Ali"
    INDEX 01 51:40:09
  TRACK 10 AUDIO
    TITLE "Made of Love (Original Extended Mix)"
    PERFORMER "Ferry Corsten feat. Betsie Larkin"
    INDEX 01 54:05:47
Back to top
View user's profile Send private message Visit poster's website
Display posts from previous:   
Post new topic   Reply to topic    Generation Trance Forum Index -> GT vs Project C (2008 - 2009) All times are GMT - 8 Hours
Goto page 1, 2  Next
Page 1 of 2

 
Jump to:  
You cannot post new topics in this forum
You cannot reply to topics in this forum
You cannot edit your posts in this forum
You cannot delete your posts in this forum
You cannot vote in polls in this forum


Powered by phpBB © 2001, 2005 phpBB Group

Powered by CloudFlare