Generation Trance
Vote for GT  at The DJ List! Vote for GT and Project C at The DJ List! Vote for Project C  at The DJ List!
 FAQFAQ   SearchSearch   Chat   MemberlistMemberlist   UsergroupsUsergroups   RegisterRegister 
 ProfileProfile   Log in to check your private messagesLog in to check your private messages   Log inLog in 
Loading a Cue Sheet
Goto page Previous  1, 2, 3, 4, 5
 
Post new topic   Reply to topic    Generation Trance Forum Index -> Support
View previous topic :: View next topic  
Author Message
djGT
Da Man


Joined: 22 Jul 2004
Posts: 6610
Location: The OC

usa.gif
PostPosted: Tue May 30, 2006 10:35 am    Post subject: Reply with quote

Masamune wrote:
Check this out. I'm using nero 6 (i think) and I took my newly burnt CD (Voices of Trance - Sept. 2004) feeling quite triumphant as track 1 rolled through beautifully. Track 2 comes up, again wonderful, and then disaster. Where is track 3? (I don't know!) Track 2 passes, but instead of going to track three, I go to 20 minutes of negative time, but still on track 2.

can you copy & paste the contents of the cue sheet here so we can see what might be the problem. Confused
_________________
VOT 149 (September 2017) + Rene Ablaze
Voices Of Summer (Dreamer + Dreaming)

Mixcloud :: Facebook :: Twitter :: MySpace :: TRACKER - Please help seed the torrents, especially those with zero seeders!
Back to top
View user's profile Send private message Visit poster's website AIM Address
Masamune
Poster


Joined: 28 Sep 2005
Posts: 7

usa.gif
PostPosted: Tue May 30, 2006 12:59 pm    Post subject: Reply with quote

Ask and you shall recieve...

Performer "GT vs Project C"
TITLE "Voices Of Trance 005 (September 2005) PM Mix"
FILE "02_GT_vs_Project_C_feat_DJ_Moo_-_Voices_Of_Trance_005_(September_2005).mp3" MP3
TRACK 01 AUDIO
TITLE "Art Of Trance - Love Washes Over (Pheric Mix)"
INDEX 01 00:00:00
TRACK 02 AUDIO
TITLE "Armin Van Buuren - Burn With Desire (Ronski Speed Mix)"
INDEX 01 07:40:02
TRACK 03 AUDIO
TITLE "Acension ft Erin Lordan - For A Lifetime (Oceanlab Remix)"
INDEX 01 15:05:03
TRACK 04 AUDIO
TITLE "Sholan - Can you Feel (Thrillseekers Mix)"
INDEX 01 22:02:36
TRACK 05 AUDIO
TITLE "Shane - It's Too Late To Turn (AVB Remix)"
INDEX 01 27:36:45
TRACK 06 AUDIO
TITLE "Davy Van Eynde - Irawadi (I'm Leaving) Duderstadt Vocal Remix)"
INDEX 01 33:45:30
TRACK 07 AUDIO
TITLE "Enmass ft. Shimika Brice - So Please"
INDEX 01 40:45:14
TRACK 08 AUDIO
TITLE "Space Diver - Unspoken (Original Mix)"
INDEX 01 47:42:37
TRACK 09 AUDIO
TITLE "Chicane - Autumn Tactics (Thrillseekers Mix)"
INDEX 01 55:21:49


This is the CUE file for the PM mix (Hour 2). And my mistake, it's September 2005. I'm afraid to burn anymore mixes, but there have been so many more since then I've wanted to burn!

Thanks, BTW
_________________
Back to top
View user's profile Send private message
omega1n
Poster


Joined: 12 Jan 2005
Posts: 1180
Location: Denver

usa.gif
PostPosted: Wed Jul 12, 2006 4:29 pm    Post subject: Reply with quote

Any one know if loading a CUE sheet could be done on Roxio's Digital Media Plus v7.2.1 ???
_________________

www.sergiosantana.net
www.triaddragons.com
Back to top
View user's profile Send private message
XCLR8
Da Fan


Joined: 10 Nov 2004
Posts: 181
Location: Tranzworld

usa.gif
PostPosted: Sun Aug 20, 2006 8:17 am    Post subject: Reply with quote

CDRWIN has worked great before. But now...I'm getting an error.



How can the disc type not be supported? This is the disc type I use.



Does anyone know what's wrong here?

I had to wait 30 min for nero to finally load the cue sheet. And it burned normally. I don't want to use nero because of the long wait. There has to be a way to fix this problem....I just can't figure it out why. Any help?
_________________
Life is too damn short, do something that you will always be remembered.
Back to top
View user's profile Send private message
Graudigyen
Da Priest


Joined: 20 Jun 2005
Posts: 486
Location: Trancelizations Research Lab

slovenia.gif
PostPosted: Sun Aug 20, 2006 9:58 am    Post subject: Reply with quote

Just use Cue Splitter program, that opens cue file and splits mix in 15-20 tracks (depends on the mix) and it automaticaly generates mu3. file or whatever (playlist file).
Than you just open playlist file with nero -burn audio cd and you select no pauses betwen tracks and burn - it is done.
The only thing is, that cue file must be correct with correct timings, otherwise some tracks will be messed or mislabeled...

Hope that helps...

Here is the new version: http://fileforum.betanews.com/detail/CUE_Splitter/1113122645/1
_________________
My mixes @ FireStorm server


Vote for Xenomorph @TheDjList.com
Cover design by www.ataplata.deviantart.com
Myspace: http://www.myspace.com/xenomorphslo
Back to top
View user's profile Send private message MSN Messenger
XCLR8
Da Fan


Joined: 10 Nov 2004
Posts: 181
Location: Tranzworld

usa.gif
PostPosted: Sun Aug 20, 2006 11:50 am    Post subject: Reply with quote

Thaks I'll try it out. But I guess there's no fixing that error problem eh? Confused
_________________
Life is too damn short, do something that you will always be remembered.
Back to top
View user's profile Send private message
hobo elite
Da Fan


Joined: 21 Sep 2005
Posts: 1734
Location: calgary AB

canada.gif
PostPosted: Sun Aug 20, 2006 3:47 pm    Post subject: Reply with quote

XCLR8 wrote:
Thaks I'll try it out. But I guess there's no fixing that error problem eh? Confused


not likely but ya use the spliter programs their a lot faster and whatnot... but make sure you get a good one or elce you loose data at the cut Wink
_________________
music makes the world go round
Back to top
View user's profile Send private message MSN Messenger
XCLR8
Da Fan


Joined: 10 Nov 2004
Posts: 181
Location: Tranzworld

usa.gif
PostPosted: Sun Sep 10, 2006 12:50 pm    Post subject: Reply with quote

Took me like 25-30 minutes to find what you were talking about Graudigyen. But I found what you were saying by accident. lol Right before I gave up. For those of you wanting to know how to load the ".m3u", here is how it is done.

Nero > audio > Nero Express > Select Music > Select Audio CD > Click and drag the m3u into nero > Wait for it to load, Check mark the "No pauses betwen tracks" and burn.

Thanks again Graudigyen. But I'm still trying to find out why CDRwin gives me that error. I guess I'll figure it out sooner or later.
_________________
Life is too damn short, do something that you will always be remembered.
Back to top
View user's profile Send private message
Display posts from previous:   
Post new topic   Reply to topic    Generation Trance Forum Index -> Support All times are GMT - 8 Hours
Goto page Previous  1, 2, 3, 4, 5
Page 5 of 5

 
Jump to:  
You cannot post new topics in this forum
You cannot reply to topics in this forum
You cannot edit your posts in this forum
You cannot delete your posts in this forum
You cannot vote in polls in this forum


Powered by phpBB © 2001, 2005 phpBB Group

Powered by CloudFlare