Generation Trance
Vote for GT  at The DJ List! Vote for GT and Project C at The DJ List! Vote for Project C  at The DJ List!
 FAQFAQ   SearchSearch   Chat   MemberlistMemberlist   UsergroupsUsergroups   RegisterRegister 
 ProfileProfile   Log in to check your private messagesLog in to check your private messages   Log inLog in 
[AUG 19 2006] Tranceverse 1 Year Anniversary Bash
Goto page Previous  1, 2, 3, 4  Next
 
Post new topic   Reply to topic    Generation Trance Forum Index -> GT vs Project C (2006 - 2007)
View previous topic :: View next topic  

Rate this mix!
Ownage!
81%
 81%  [ 48 ]
Pretty Good!
11%
 11%  [ 7 ]
Okie Dokie!
5%
 5%  [ 3 ]
Not Bad!
0%
 0%  [ 0 ]
Poopage!
1%
 1%  [ 1 ]
Total Votes : 59

Author Message
duo
Poster


Joined: 23 Jul 2005
Posts: 27
Location: Brussels

belgium.gif
PostPosted: Sun Aug 27, 2006 7:40 pm    Post subject: Reply with quote

EEK wrote:
What cue splitter are you using?

edit: Wait, which cue sheet, mine or that other one?


I'm using music cutter...i used the cue that GT provided...and for some reason i am having the same problem with the cue files from VoT 16 Confused

i don't understand why because just recently i split the Voices of summer 2006 sets no problem Rolling Eyes
Back to top
View user's profile Send private message
EEK
Bandwith Donator


Joined: 29 Jul 2005
Posts: 52
Location: Monroe, WA

usa.gif
PostPosted: Mon Aug 28, 2006 2:16 am    Post subject: Reply with quote

I would try this:

http://www.shareup.com/CUE_Splitter-download-30218.html

Works like a charm, and it's got a beautifully simple interface.

edit: Also, here's DJ Mik's mix.

Quote:
PERFORMER "DJ Mik"
TITLE "Tranceverse 1 Year Anniversary 2006"
FILE "10.mik.tranceverse1yr.mp3" MP3
TRACK 01 AUDIO
TITLE "Interstate - I Found You (Armin Van Buuren Intro Edit)"
INDEX 01 00:00:00
TRACK 02 AUDIO
TITLE "Ridgewalkers ft. El - Find (Andy Moor Mix)"
INDEX 01 07:50:00
TRACK 03 AUDIO
TITLE "Whirlpool - Under The Sun (Solar Stone Remix)"
INDEX 01 14:45:00
TRACK 04 AUDIO
TITLE "DT8 Project ft. Andrea Britton - Winter (Max Graham Remix)"
INDEX 01 25:26:00
TRACK 05 AUDIO
TITLE "BT feat Sarah McLachlan - Dreaming (DJ Tiesto Mix)"
INDEX 01 32:05:00
TRACK 06 AUDIO
TITLE "Paul Van Dyke - Nothing But You (Faithless Remix)"
INDEX 01 39:00:00
TRACK 07 AUDIO
TITLE " Andain - Beautiful Things (Gabriel and Dresdens Unplugged Mix)"
INDEX 01 45:15:00
TRACK 08 AUDIO
TITLE "Karen Overton - Your Loving Arms (Bush II Bush Remix)"
INDEX 01 54:04:00


Enjoy. The transition between the last two tracks wasn't very... definitive. It might seem inaccurate, but I couldn't find a better spot to split it. Feel free to improve it if you want.
Back to top
View user's profile Send private message Visit poster's website AIM Address MSN Messenger
duo
Poster


Joined: 23 Jul 2005
Posts: 27
Location: Brussels

belgium.gif
PostPosted: Tue Aug 29, 2006 10:45 am    Post subject: Reply with quote

thanks for the suggestion...it works great Smile...however just one question..when all the trakx are split they all have gt vs project c then the artist and song title...is there anyway to modify the resulting name of the trak ?
Back to top
View user's profile Send private message
EEK
Bandwith Donator


Joined: 29 Jul 2005
Posts: 52
Location: Monroe, WA

usa.gif
PostPosted: Tue Aug 29, 2006 11:55 am    Post subject: Reply with quote

Yes, there is actually. You'll see a check box near the bottom that says "File Mask," and hopefully it has a check mark by it. If not, do that. In the box directly next to it it should say "default: (%n) [%a] %t" or something. What you wanna do is click the plus sign right under that box.

Then all you need to do is make a name for your mask and all the variables are right there for you to look at. Hope that helped.

Mine for example is:
%n- %a _ %t
And that outputs something like:
04- DT8 Project ft. Andrea Britton _ Winter (Max Graham Remix).mp3

I don't know why, but I like having an underscore rather than a dash between my artist and title. d:
Back to top
View user's profile Send private message Visit poster's website AIM Address MSN Messenger
duo
Poster


Joined: 23 Jul 2005
Posts: 27
Location: Brussels

belgium.gif
PostPosted: Tue Aug 29, 2006 4:46 pm    Post subject: Reply with quote

much appreciated...thx again for your help Cool
Back to top
View user's profile Send private message
djtoRn
Da Representative


Joined: 05 Jan 2005
Posts: 1524
Location: The First Coast

usa.gif
PostPosted: Tue Aug 29, 2006 6:01 pm    Post subject: Reply with quote

here is the cue for my anniversary mix

Quote:
PERFORMER "dj toRn"
TITLE "Tranceverse 1 Year Anniversary"
FILE "06.torn.tranceverse1yr.mp3" MP3
TRACK 01 AUDIO
TITLE "above and beyond - Can't Sleep (Maori Remix)"
FLAGS DCP
INDEX 01 00:00:00
TRACK 02 AUDIO
TITLE "alex monakhov - 1 a.m. Moonball (Alex Monakhov & Vadim Zukhov remix)"
FLAGS DCP
INDEX 01 08:16:00
TRACK 03 AUDIO
TITLE "DT8 Project ft Kante - Narama (jurgen vries mix)"
FLAGS DCP
INDEX 01 15:26:00
TRACK 04 AUDIO
TITLE "Elixir - Last Light (Artic Breeze Remix)"
FLAGS DCP
INDEX 01 22:57:00
TRACK 05 AUDIO
TITLE "Tess - The second you sleep (original)"
FLAGS DCP
INDEX 01 31:11:00
TRACK 06 AUDIO
TITLE "Svenson & Gielen - We know what you did"
FLAGS DCP
INDEX 01 35:30:00
TRACK 07 AUDIO
TITLE "Above and beyond - Alone tonight (Ronski Speed Remix)"
FLAGS DCP
INDEX 01 38:08:00
TRACK 08 AUDIO
TITLE "Josh Gabriel - Alive (Creamfields Edit)"
FLAGS DCP
INDEX 01 44:56:00
TRACK 09 AUDIO
TITLE "Beam ft Michelle aragon - Silent Tears (shogs 2 faces vocal mix)"
FLAGS DCP
INDEX 01 51:12:00
Back to top
View user's profile Send private message Send e-mail Visit poster's website AIM Address MSN Messenger
CtHulHu
Poster


Joined: 22 May 2005
Posts: 35

belgium.gif
PostPosted: Tue Aug 29, 2006 11:04 pm    Post subject: Reply with quote

12 hours, .... you guys are crazy Very Happy

btw, thanks Cool
Back to top
View user's profile Send private message
orangefeesh
Da Fan


Joined: 27 Dec 2004
Posts: 35
Location: NJ

usa.gif
PostPosted: Wed Aug 30, 2006 2:12 pm    Post subject: Reply with quote

hmm so what happened to using torrent downloads?
_________________
Fav artists are Airbase, Super 8, A&B.
Back to top
View user's profile Send private message
djGT
Da Man


Joined: 22 Jul 2004
Posts: 6615
Location: The OC

usa.gif
PostPosted: Wed Aug 30, 2006 2:35 pm    Post subject: Reply with quote

orangefeesh wrote:
hmm so what happened to using torrent downloads?

mr D is still setting one up for this. Embarassed
_________________
Voices Of Autumn (Forbidden + Memories)
VOT 151 (November 2017) + DJ Moo

Mixcloud :: Facebook :: Twitter :: MySpace :: TRACKER - Please help seed the torrents, especially those with zero seeders!
Back to top
View user's profile Send private message Visit poster's website AIM Address
djtoRn
Da Representative


Joined: 05 Jan 2005
Posts: 1524
Location: The First Coast

usa.gif
PostPosted: Wed Aug 30, 2006 6:12 pm    Post subject: Reply with quote

we have exceeded our bandwidth on tranceverse.com. sorry about this guys, it should be back up soon. Please use the links that EEK and others have provided if you want to DL the mixes.

Thanks
Back to top
View user's profile Send private message Send e-mail Visit poster's website AIM Address MSN Messenger
Nightbird
Da Programmer


Joined: 01 Mar 2005
Posts: 979
Location: Tulsa

usa.gif
PostPosted: Thu Aug 31, 2006 6:43 am    Post subject: Reply with quote

yeah, it should come back tomorrow since it will be the first of the month.

I am probably the last person to get the mixes from the website, so blame me. hehe.
_________________
'Programming today is a race between software engineers striving to build bigger and better idiot-proof programs, and the Universe trying to produce bigger and better idiots. So far, the Universe is winning.' -Rich Cook
Back to top
View user's profile Send private message Yahoo Messenger MSN Messenger
tranceaddict_cl
Poster


Joined: 27 Dec 2004
Posts: 286
Location: Punta Arenas, Chile

chile.gif
PostPosted: Thu Aug 31, 2006 5:17 pm    Post subject: Reply with quote

Cue files for first two hours:

PERFORMER "Xelius"
TITLE "01.Xelius.tranceverse1yr"
FILE "01.Xelius.tranceverse1yr.mp3" MP3
TRACK 01 AUDIO
TITLE "Max Graham feat. Jessica Riddle - Gone (Position 1 Intro Mix) "
INDEX 01 00:00:00
TRACK 02 AUDIO
TITLE "Brothers of Dub - After Time (EK Mix)"
INDEX 01 08:11:00
TRACK 03 AUDIO
TITLE "Dominic Plaza - Sounds Rushing "
INDEX 01 12:49:00
TRACK 04 AUDIO
TITLE "Jay Wave - Samsara "
INDEX 01 19:10:00
TRACK 05 AUDIO
TITLE "Thomas Bronzwaer - Shadow World"
INDEX 01 24:58:00
TRACK 06 AUDIO
TITLE "Galen Behr & Robert Burns - Till We Meet Again (Galen Behr Mix)"
INDEX 01 31:00:00
TRACK 07 AUDIO
TITLE "Leon Boiler presents Surpresa - Back in the Days"
INDEX 01 38:15:00
TRACK 08 AUDIO
TITLE "Primolux - Turnpoint (B-side)"
INDEX 01 43:34:00
TRACK 09 AUDIO
TITLE "Satoshi Tomiie - Glow Spirit"
INDEX 01 49:17:00


SECOND HOUR

PERFORMER "Dj Devine"
TITLE "Tranceverse 1 yr Anniversary (2nd hour)"
FILE "02.devine.tranceverse1yr.mp3" MP3
TRACK 01 AUDIO
TITLE "Tilt - New Day (Boomjinx Dub)"
INDEX 01 00:00:00
TRACK 02 AUDIO
TITLE "Filo & Peri - Dance With A Devil (Flipside Mix)"
INDEX 01 07:13:00
TRACK 03 AUDIO
TITLE "Latigidi - It's Time (Antidotes Electrified Mix)"
INDEX 01 13:59:00
TRACK 04 AUDIO
TITLE "Airwave - Progressive Agressive"
INDEX 01 19:42:00
TRACK 05 AUDIO
TITLE "Marco V - False Light (Ton TB Mix)"
INDEX 01 26:06:00
TRACK 06 AUDIO
TITLE "Dallas Superstars - Fine Day (Komytea Mix)"
INDEX 01 32:31:00
TRACK 07 AUDIO
TITLE "Airwave - Progressive Agressive (Antidotes Elektroshock Club Mix)"
INDEX 01 38:40:00
TRACK 08 AUDIO
TITLE "Gabriel & Dresden - Arcadia (Ozgur Can Mix)"
INDEX 01 44:39:00


No guarantees Wink
Back to top
View user's profile Send private message Send e-mail
EEK
Bandwith Donator


Joined: 29 Jul 2005
Posts: 52
Location: Monroe, WA

usa.gif
PostPosted: Thu Aug 31, 2006 11:02 pm    Post subject: Reply with quote

Thanks for the cues, guys.

Also: You guys got my bandwidth usage up to 12% last month! Very Happy
That's like 1240gbs or something. Good job, we put a dent on my 1TB bandwidth limit for the month.
_________________

[Chrance.com Mix Mirrors .:. Get the mixes here/here .:. Buy hosting or donate]
[Want hosting? It's free, just ask. .:. Or use my uploader .:. Read my mp3 blog!]
Back to top
View user's profile Send private message Visit poster's website AIM Address MSN Messenger
OneJoeZee
Poster


Joined: 11 Apr 2006
Posts: 45
Location: Socal

blank.gif
PostPosted: Fri Sep 01, 2006 1:14 pm    Post subject: Reply with quote

bring on the cue sheets!!
_________________
Back to top
View user's profile Send private message AIM Address
EEK
Bandwith Donator


Joined: 29 Jul 2005
Posts: 52
Location: Monroe, WA

usa.gif
PostPosted: Fri Sep 01, 2006 9:52 pm    Post subject: Reply with quote

I noticed earlier that the tracklisting for "Max Graham feat. Jessica Riddle - Gone (Position 1 Intro Mix)" is wrong. It is in fact "Max Graham feat. Jessica Jacobs - I Know You're Gone (Position 1 Intro Mix)" on the Xelius mix.
_________________

[Chrance.com Mix Mirrors .:. Get the mixes here/here .:. Buy hosting or donate]
[Want hosting? It's free, just ask. .:. Or use my uploader .:. Read my mp3 blog!]
Back to top
View user's profile Send private message Visit poster's website AIM Address MSN Messenger
djGT
Da Man


Joined: 22 Jul 2004
Posts: 6615
Location: The OC

usa.gif
PostPosted: Fri Sep 01, 2006 10:15 pm    Post subject: Reply with quote

close enough. Razz
_________________
Voices Of Autumn (Forbidden + Memories)
VOT 151 (November 2017) + DJ Moo

Mixcloud :: Facebook :: Twitter :: MySpace :: TRACKER - Please help seed the torrents, especially those with zero seeders!
Back to top
View user's profile Send private message Visit poster's website AIM Address
SDK
Poster


Joined: 22 Apr 2005
Posts: 18

belgium.gif
PostPosted: Wed Sep 06, 2006 5:46 am    Post subject: Reply with quote

Thanks for the downloads. Wink
Back to top
View user's profile Send private message
de postbode
Poster


Joined: 06 Apr 2006
Posts: 28
Location: The Netherlands

netherlands.gif
PostPosted: Tue Sep 26, 2006 9:29 am    Post subject: Reply with quote

looks great!! That's a lot of music! Laughing
Back to top
View user's profile Send private message
beowulf7
DJ Prince


Joined: 04 Nov 2004
Posts: 1394
Location: TX

usa.gif
PostPosted: Tue Sep 26, 2006 10:22 pm    Post subject: Reply with quote

I just d/l'ed Hour 7 (the one GT advertised in an e-mail announcement). Wow, this rocks! I'm about 38 min. into it so far. At around the 31 min. mark, the bass got so big that I had to put on my headphones, lest that my sleeping neighbors would contact the police. Shocked
_________________
DJ Prince (http://djprince.beowulf7.com)

Trance fans don't let trance fans listen to Motorcycle - As the Rush Comes.
Back to top
View user's profile Send private message AIM Address
m0nKeY
Poster


Joined: 09 Oct 2005
Posts: 4

uk.gif
PostPosted: Wed Sep 27, 2006 9:04 am    Post subject: Reply with quote

So which cue is right?

The one EEK posted starts with the Solarstone track, where as the one I downloaded that GT posted starts with Cassino & Laben, which was the one I downloaded the mix with.

!?
Back to top
View user's profile Send private message
djGT
Da Man


Joined: 22 Jul 2004
Posts: 6615
Location: The OC

usa.gif
PostPosted: Wed Sep 27, 2006 10:47 am    Post subject: Reply with quote

m0nKeY wrote:
So which cue is right?

The one EEK posted starts with the Solarstone track, where as the one I downloaded that GT posted starts with Cassino & Laben, which was the one I downloaded the mix with.

!?

this should be the right one. Wink

Edit: ok, maybe it's not. Embarassed
_________________
Voices Of Autumn (Forbidden + Memories)
VOT 151 (November 2017) + DJ Moo

Mixcloud :: Facebook :: Twitter :: MySpace :: TRACKER - Please help seed the torrents, especially those with zero seeders!


Last edited by djGT on Wed Sep 27, 2006 11:58 am; edited 1 time in total
Back to top
View user's profile Send private message Visit poster's website AIM Address
m0nKeY
Poster


Joined: 09 Oct 2005
Posts: 4

uk.gif
PostPosted: Wed Sep 27, 2006 11:50 am    Post subject: Reply with quote

That file is the same one with the mix and which you uploaded in your previous post. I think this is the wrong one because track 7 (Hammer & Funabashi - Moments (Thomas Penton Remix)) is what sounds to me like System F - Cry.
Back to top
View user's profile Send private message
djGT
Da Man


Joined: 22 Jul 2004
Posts: 6615
Location: The OC

usa.gif
PostPosted: Wed Sep 27, 2006 11:59 am    Post subject: Reply with quote

you're right, let me try to find the right one after work tonight. Wink
_________________
Voices Of Autumn (Forbidden + Memories)
VOT 151 (November 2017) + DJ Moo

Mixcloud :: Facebook :: Twitter :: MySpace :: TRACKER - Please help seed the torrents, especially those with zero seeders!
Back to top
View user's profile Send private message Visit poster's website AIM Address
m0nKeY
Poster


Joined: 09 Oct 2005
Posts: 4

uk.gif
PostPosted: Wed Sep 27, 2006 12:09 pm    Post subject: Reply with quote

djGT wrote:
you're right, let me try to find the right one after work tonight. Wink


Thanks mate. Real good mix by the way, love the guitar at the start also.
Back to top
View user's profile Send private message
NAIKY
Poster


Joined: 27 Sep 2006
Posts: 3

blank.gif
PostPosted: Wed Sep 27, 2006 1:14 pm    Post subject: Reply with quote

Anybody have this cue file??

Hour 04 - Mike Emvee - Tranceverse 1 Year Anniversary 2006
Tracklist:
01 :. Ferry Corsten feat. Simon Le Bon - Fire
02 :. Lange pres. Firewall - Sincere (Smith & Pledger Remix)
03 :. Paul Oakenfold - Southern Sun (Tiesto Remix)
04 :. 4 Strings - Into the Night (Coast 2 Coast Remix)
05 :. Andain - Summer Calling (Original)
06 :. The Ambush - Acapulco (Original)
07 :. Schiller - Das Glockenspiel
08 :. Delerium - Innocente (Tiesto Remix)
09 :. Gustova Santaolalla - The Wings (Gabriel & Dresden Nature Mix)
10 :. Vitalic - La Rock 1
11 :. Airwave - Another Dimension
12 :. Above and Beyond vs. Andy Moor - Air For Life (Original)
13 :. Dogzilla - Without You


thkkkk
Back to top
View user's profile Send private message
Display posts from previous:   
Post new topic   Reply to topic    Generation Trance Forum Index -> GT vs Project C (2006 - 2007) All times are GMT - 8 Hours
Goto page Previous  1, 2, 3, 4  Next
Page 3 of 4

 
Jump to:  
You cannot post new topics in this forum
You cannot reply to topics in this forum
You cannot edit your posts in this forum
You cannot delete your posts in this forum
You cannot vote in polls in this forum


Powered by phpBB © 2001, 2005 phpBB Group

Powered by CloudFlare