Generation Trance
Vote for GT  at The DJ List! Vote for GT and Project C at The DJ List! Vote for Project C  at The DJ List!
 FAQFAQ   SearchSearch   Chat   MemberlistMemberlist   UsergroupsUsergroups   RegisterRegister 
 ProfileProfile   Log in to check your private messagesLog in to check your private messages   Log inLog in 
[AUG 19 2006] Tranceverse 1 Year Anniversary Bash
Goto page Previous  1, 2, 3, 4  Next
 
Post new topic   Reply to topic    Generation Trance Forum Index -> GT vs Project C (2006 - 2007)
View previous topic :: View next topic  

Rate this mix!
Ownage!
81%
 81%  [ 48 ]
Pretty Good!
11%
 11%  [ 7 ]
Okie Dokie!
5%
 5%  [ 3 ]
Not Bad!
0%
 0%  [ 0 ]
Poopage!
1%
 1%  [ 1 ]
Total Votes : 59

Author Message
djtoRn
Da Representative


Joined: 05 Jan 2005
Posts: 1524
Location: The First Coast

usa.gif
PostPosted: Sun Aug 20, 2006 11:44 am    Post subject: Reply with quote

Download links have been added for the Celebration. Click HERE
Back to top
View user's profile Send private message Send e-mail Visit poster's website AIM Address MSN Messenger
Ntranced1
Poster


Joined: 13 Jan 2006
Posts: 162
Location: Connecticut

usa.gif
PostPosted: Sun Aug 20, 2006 4:45 pm    Post subject: Reply with quote

Are all the links down at this point? Tried downloading but no luck. Looking forward to all these awesome mixes!
Back to top
View user's profile Send private message
djtoRn
Da Representative


Joined: 05 Jan 2005
Posts: 1524
Location: The First Coast

usa.gif
PostPosted: Sun Aug 20, 2006 5:25 pm    Post subject: Reply with quote

Ntranced1 wrote:
Are all the links down at this point? Tried downloading but no luck. Looking forward to all these awesome mixes!
they are being reuploaded as we speak they should be available in the next hour
Back to top
View user's profile Send private message Send e-mail Visit poster's website AIM Address MSN Messenger
Ntranced1
Poster


Joined: 13 Jan 2006
Posts: 162
Location: Connecticut

usa.gif
PostPosted: Sun Aug 20, 2006 6:53 pm    Post subject: Reply with quote

....downloading now. Thanks
Back to top
View user's profile Send private message
EEK
Bandwith Donator


Joined: 29 Jul 2005
Posts: 52
Location: Monroe, WA

usa.gif
PostPosted: Mon Aug 21, 2006 11:44 am    Post subject: Reply with quote

I mirrored them all also.

Hour 1
Hour 2
Hour 3
Hour 4
Hour 5
Hour 6
Hour 7
Hour 8
Hour 9
Hour 10
Hour 11-12
Back to top
View user's profile Send private message Visit poster's website AIM Address MSN Messenger
Ntranced1
Poster


Joined: 13 Jan 2006
Posts: 162
Location: Connecticut

usa.gif
PostPosted: Mon Aug 21, 2006 4:59 pm    Post subject: Reply with quote

listened to them today, they are ALL Excellent! Great job, everyone, thank you for sharing. Love'm all!
Back to top
View user's profile Send private message
djtoRn
Da Representative


Joined: 05 Jan 2005
Posts: 1524
Location: The First Coast

usa.gif
PostPosted: Mon Aug 21, 2006 6:12 pm    Post subject: Reply with quote

Ntranced1 wrote:
listened to them today, they are ALL Excellent! Great job, everyone, thank you for sharing. Love'm all!
Thanks for your feedback! I am glad that you enjoyed them all.
Back to top
View user's profile Send private message Send e-mail Visit poster's website AIM Address MSN Messenger
ewe_2
Poster


Joined: 29 Sep 2004
Posts: 149

usa.gif
PostPosted: Tue Aug 22, 2006 10:55 am    Post subject: Reply with quote

I was able to download all but 10, 11 and 12. Can't wait to listen to them.

Smile

D
Back to top
View user's profile Send private message
deseomar
Poster


Joined: 31 Jan 2005
Posts: 7

usa.gif
PostPosted: Tue Aug 22, 2006 4:31 pm    Post subject: Looking for a torrent file Reply with quote

Does anyone have a torrent file for these?
Thanks.
Back to top
View user's profile Send private message
djtoRn
Da Representative


Joined: 05 Jan 2005
Posts: 1524
Location: The First Coast

usa.gif
PostPosted: Tue Aug 22, 2006 6:29 pm    Post subject: Reply with quote

ewe_2 wrote:
I was able to download all but 10, 11 and 12. Can't wait to listen to them.

Smile

D


which links were you using to DL?

deseomar wrote:
Does anyone have a torrent file for these?
Thanks.


Unfortunately we do not have torrents available. Sad
Back to top
View user's profile Send private message Send e-mail Visit poster's website AIM Address MSN Messenger
djtoRn
Da Representative


Joined: 05 Jan 2005
Posts: 1524
Location: The First Coast

usa.gif
PostPosted: Tue Aug 22, 2006 6:42 pm    Post subject: Reply with quote

A replay of DI.fms show of the 1 year anniversary bash. 12 hours of fun!


Listen to Trancestalgia Radio! Just click the links below!

Trancestalgia.fm Trance Channel - WinAmp (96kbps AAC+)
Trancestalgia.fm Vocal Trance Channel - WinAmp (96kbps AAC+)
Back to top
View user's profile Send private message Send e-mail Visit poster's website AIM Address MSN Messenger
EEK
Bandwith Donator


Joined: 29 Jul 2005
Posts: 52
Location: Monroe, WA

usa.gif
PostPosted: Tue Aug 22, 2006 9:25 pm    Post subject: Reply with quote

Hold the phone here, the cuesheet for GT vs Project C's mix is different than what is listed here...

Quote:

PERFORMER "GT vs Project C Feat LiquidRezin"
TITLE "Tranceverse 1 Year Anniversary 2006"
FILE "07_GT_vs_Project_C_Feat_LiquidRezin_-_Tranceverse_1_Year_Anniversary_2006.mp3" MP3
TRACK 01 AUDIO
TITLE "Cassino & Laben ft Marina Puglisi - Lasting Memories (Original Mix)"
INDEX 01 00:00:00
TRACK 02 AUDIO
TITLE "Jiva - My Dream (Original Mix)"
INDEX 01 08:19:53
TRACK 03 AUDIO
TITLE "DJ Shah Meets Jan Johnston - Beautifull (High Noon at Salinas Mix)"
INDEX 01 15:46:07
TRACK 04 AUDIO
TITLE "Lala Project - Wanna Fly (Vocal Mix)"
INDEX 01 21:30:15
TRACK 05 AUDIO
TITLE "The Ledge - Falling (Stel Remix)"
INDEX 01 28:18:54
TRACK 06 AUDIO
TITLE "Matias Lehtola ft Gina J - Burning Bright (Funabashi Remix)"
INDEX 01 34:20:51
TRACK 07 AUDIO
TITLE "Hammer & Funabashi - Moments (Thomas Penton Remix)"
INDEX 01 40:33:56
TRACK 08 AUDIO
TITLE "Johan Gielen - Physical Overdrive (Akatisha Tribal Mix)"
INDEX 01 46:31:63
TRACK 09 AUDIO
TITLE "Above & Beyond - Cant Sleep (Sonorous Remix)"
INDEX 01 53:29:56


Quote:

01. Scott Bond vs Solarstone - 3rd Earth (LiquidRezin Got A Guitar Smash)
02. Hemstock & Jennings - Babylon (Icone Remix)
03. Flesh & Bones - Rigor Mortis (Kyau vs Albert Remix)
04. Lange vs Gareth Emery - Back On Track
05. Gareth Emery & Jon O'Bir - Bouncebackability (Mind Remix)
06. Eden Project - Mummy (Original Vocal Mix)
07. System F - Cry (DJ Shah & Pedro Del Mar Remix)
08. Ron van den Beuken - Find The Way (Vocal Mix)
09. Disco Brothers ft Andrea Britton - Time Still Drifts Away (Utopia Vocal Mix)
10. Modulation vs LiquidRezin - White Flamin Rezin


ehhhh?
edit: Being familiar with a few songs, I can conclude that the cuesheet is not correct. What's with that?
Back to top
View user's profile Send private message Visit poster's website AIM Address MSN Messenger
djGT
Da Man


Joined: 22 Jul 2004
Posts: 6610
Location: The OC

usa.gif
PostPosted: Wed Aug 23, 2006 8:17 am    Post subject: Reply with quote

EEK wrote:
ehhhh?
edit: Being familiar with a few songs, I can conclude that the cuesheet is not correct. What's with that?

CUE - Just fix up line 3 in the file to match your filename! Wink

Code:
FILE "07_GT_vs_Project_C_Feat_LiquidRezin_-_Tranceverse_1_Year_Anniversary_2006.mp3" MP3

_________________
VOT 149 (September 2017) + Rene Ablaze
Voices Of Summer (Dreamer + Dreaming)

Mixcloud :: Facebook :: Twitter :: MySpace :: TRACKER - Please help seed the torrents, especially those with zero seeders!
Back to top
View user's profile Send private message Visit poster's website AIM Address
ADO
Poster


Joined: 04 Aug 2006
Posts: 7

blank.gif
PostPosted: Wed Aug 23, 2006 9:02 am    Post subject: Reply with quote

Wink here is an other mirror for you guy's


Code:
http://rapidshare.de/files/30391622/_AUG_19_2006__Tranceverse_1_Year_Anniversary_Bash-ADO.part01.rar.html
http://rapidshare.de/files/30392879/_AUG_19_2006__Tranceverse_1_Year_Anniversary_Bash-ADO.part02.rar.html
http://rapidshare.de/files/30394163/_AUG_19_2006__Tranceverse_1_Year_Anniversary_Bash-ADO.part03.rar.html
http://rapidshare.de/files/30395373/_AUG_19_2006__Tranceverse_1_Year_Anniversary_Bash-ADO.part04.rar.html
http://rapidshare.de/files/30396572/_AUG_19_2006__Tranceverse_1_Year_Anniversary_Bash-ADO.part05.rar.html
http://rapidshare.de/files/30397859/_AUG_19_2006__Tranceverse_1_Year_Anniversary_Bash-ADO.part06.rar.html
http://rapidshare.de/files/30399020/_AUG_19_2006__Tranceverse_1_Year_Anniversary_Bash-ADO.part07.rar.html
http://rapidshare.de/files/30400183/_AUG_19_2006__Tranceverse_1_Year_Anniversary_Bash-ADO.part08.rar.html
http://rapidshare.de/files/30401260/_AUG_19_2006__Tranceverse_1_Year_Anniversary_Bash-ADO.part09.rar.html
http://rapidshare.de/files/30402245/_AUG_19_2006__Tranceverse_1_Year_Anniversary_Bash-ADO.part10.rar.html
http://rapidshare.de/files/30402849/_AUG_19_2006__Tranceverse_1_Year_Anniversary_Bash-ADO.part11.rar.html
Back to top
View user's profile Send private message
EEK
Bandwith Donator


Joined: 29 Jul 2005
Posts: 52
Location: Monroe, WA

usa.gif
PostPosted: Thu Aug 24, 2006 1:23 am    Post subject: Reply with quote

Yeah but... the track names are different. It's like the cue was for a different mix or something. Embarassed

I whipped one up just now, it's not perfect, but it's pretty dang close. This is also the first cue I've made by myself.

Quote:
PERFORMER "GT vs Project C Feat LiquidRezin"
TITLE "Tranceverse 1 Year Anniversary 2006"
FILE "07_GT_vs_Project_C_Feat_LiquidRezin_-_Tranceverse_1_Year_Anniversary_2006.mp3" MP3
TRACK 01 AUDIO
TITLE "Scott Bond vs Solarstone - 3rd Earth (LiquidRezin Got A Guitar Smash)"
INDEX 01 00:00:00
TRACK 02 AUDIO
TITLE "Hemstock & Jennings - Babylon (Icone Remix)"
INDEX 01 09:00:00
TRACK 03 AUDIO
TITLE "Flesh & Bones - Rigor Mortis (Kyau vs Albert Remix)"
INDEX 01 15:30:00
TRACK 04 AUDIO
TITLE "Lange vs Gareth Emery - Back On Track"
INDEX 01 21:57:00
TRACK 05 AUDIO
TITLE "Gareth Emery & Jon O'Bir - Bouncebackability (Mind Remix)"
INDEX 01 27:05:00
TRACK 06 AUDIO
TITLE "Eden Project - Mummy (Original Vocal Mix)"
INDEX 01 33:39:00
TRACK 07 AUDIO
TITLE "System F - Cry (DJ Shah & Pedro Del Mar Remix)"
INDEX 01 40:23:00
TRACK 08 AUDIO
TITLE "Ron van den Beuken - Find The Way (Vocal Mix)"
INDEX 01 48:05:00
TRACK 09 AUDIO
TITLE "Disco Brothers ft Andrea Britton - Time Still Drifts Away (Utopia Vocal Mix)"
INDEX 01 52:46:00
TRACK 10 AUDIO
TITLE "Modulation vs LiquidRezin - White Flamin Rezin"
INDEX 01 58:21:00
Back to top
View user's profile Send private message Visit poster's website AIM Address MSN Messenger
DAZZLER
Da Brit


Joined: 28 Aug 2004
Posts: 3784
Location: Nottingham UK

uk.gif
PostPosted: Thu Aug 24, 2006 2:27 am    Post subject: Reply with quote

Il make a cue for my mix as soon as possible Very Happy
_________________
Back to top
View user's profile Send private message Send e-mail Visit poster's website
joe_guy
Poster


Joined: 08 Nov 2004
Posts: 17

blank.gif
PostPosted: Thu Aug 24, 2006 9:10 am    Post subject: Reply with quote

great stuff guys...always good to hear new material!!
Back to top
View user's profile Send private message Send e-mail
djGT
Da Man


Joined: 22 Jul 2004
Posts: 6610
Location: The OC

usa.gif
PostPosted: Thu Aug 24, 2006 10:40 am    Post subject: Reply with quote

EEK wrote:
Yeah but... the track names are different. It's like the cue was for a different mix or something. Embarassed

i know, that cue sheet they provided is wrong, because i didn't give them one, in any case, the one i posted above is correct if anyone wants to use it! Wink
_________________
VOT 149 (September 2017) + Rene Ablaze
Voices Of Summer (Dreamer + Dreaming)

Mixcloud :: Facebook :: Twitter :: MySpace :: TRACKER - Please help seed the torrents, especially those with zero seeders!
Back to top
View user's profile Send private message Visit poster's website AIM Address
EEK
Bandwith Donator


Joined: 29 Jul 2005
Posts: 52
Location: Monroe, WA

usa.gif
PostPosted: Thu Aug 24, 2006 12:19 pm    Post subject: Reply with quote

What's that cuesheet for then? To throw me off? Wink
Back to top
View user's profile Send private message Visit poster's website AIM Address MSN Messenger
tat722
Poster


Joined: 02 Mar 2005
Posts: 9
Location: Brooklyn NY

blank.gif
PostPosted: Fri Aug 25, 2006 10:38 am    Post subject: Reply with quote

Awsome Set Everyone....

Does anyone have the cues for the other hrs besides GT's????
Back to top
View user's profile Send private message
[email protected]
Poster


Joined: 02 Oct 2004
Posts: 12

usa.gif
PostPosted: Fri Aug 25, 2006 6:03 pm    Post subject: Reply with quote

GT, you guys kick ass!!! Thanks for all the great tunes...keep up the good work Wink
________
Ford Proving Grounds history


Last edited by [email protected] on Thu Feb 03, 2011 8:50 pm; edited 1 time in total
Back to top
View user's profile Send private message
novuss
Poster


Joined: 02 Mar 2006
Posts: 44
Location: Charlotte

usa.gif
PostPosted: Sun Aug 27, 2006 1:57 pm    Post subject: Reply with quote

can we get cue sheets for all?
Back to top
View user's profile Send private message AIM Address
duo
Poster


Joined: 23 Jul 2005
Posts: 27
Location: Brussels

belgium.gif
PostPosted: Sun Aug 27, 2006 3:46 pm    Post subject: Reply with quote

i second that if possible.... Embarassed

the last track with liquidrezin is just do dammn good ....thanks again Twisted Evil
Back to top
View user's profile Send private message
duo
Poster


Joined: 23 Jul 2005
Posts: 27
Location: Brussels

belgium.gif
PostPosted: Sun Aug 27, 2006 3:50 pm    Post subject: Reply with quote

djGT wrote:
EEK wrote:
Yeah but... the track names are different. It's like the cue was for a different mix or something. Embarassed

i know, that cue sheet they provided is wrong, because i didn't give them one, in any case, the one i posted above is correct if anyone wants to use it! Wink


i used the cue that you provided above but it when trying to split hte mix it gave me error messages Rolling Eyes
Back to top
View user's profile Send private message
EEK
Bandwith Donator


Joined: 29 Jul 2005
Posts: 52
Location: Monroe, WA

usa.gif
PostPosted: Sun Aug 27, 2006 7:01 pm    Post subject: Reply with quote

What cue splitter are you using?

edit: Wait, which cue sheet, mine or that other one?
Back to top
View user's profile Send private message Visit poster's website AIM Address MSN Messenger
Display posts from previous:   
Post new topic   Reply to topic    Generation Trance Forum Index -> GT vs Project C (2006 - 2007) All times are GMT - 8 Hours
Goto page Previous  1, 2, 3, 4  Next
Page 2 of 4

 
Jump to:  
You cannot post new topics in this forum
You cannot reply to topics in this forum
You cannot edit your posts in this forum
You cannot delete your posts in this forum
You cannot vote in polls in this forum


Powered by phpBB © 2001, 2005 phpBB Group

Powered by CloudFlare