Generation Trance
Vote for GT  at The DJ List! Vote for GT and Project C at The DJ List! Vote for Project C  at The DJ List!
 FAQFAQ   SearchSearch   Chat   MemberlistMemberlist   UsergroupsUsergroups   RegisterRegister 
 ProfileProfile   Log in to check your private messagesLog in to check your private messages   Log inLog in 
Voices Of Trance 007 (November 2005) - Guest Kyau vs Albert
Goto page Previous  1, 2, 3, 4, 5, 6, 7, 8  Next
 
Post new topic   Reply to topic    Generation Trance Forum Index -> GT vs Project C (past - 2005)
View previous topic :: View next topic  

Rate this mix!
Ownage!
70%
 70%  [ 129 ]
Pretty Good!
20%
 20%  [ 38 ]
Okie Dokie!
3%
 3%  [ 7 ]
Not Bad!
2%
 2%  [ 4 ]
Poopage!
2%
 2%  [ 4 ]
Total Votes : 182

Author Message
zeroJ
Da Moderator


Joined: 13 Aug 2004
Posts: 3293
Location: Gatineau, Quebec

canada.gif
PostPosted: Wed Nov 23, 2005 8:05 am    Post subject: Reply with quote

lostdays wrote:
zeroJ wrote:
extra YSI link, if anyone wants Very Happy

http://s18.yousendit.com/d.aspx?id=3JZEFDWZKR08Z0EA0SQCC0P7SO

Hey, it's asking for a password. What's the password?


Confused I never put a password, well now its expired so nothing to do now Wink
_________________
Vote for
zeroJ @ The DJ List!


Back to top
View user's profile Send private message Send e-mail Visit poster's website
lostdays
Maigo No Nichi


Joined: 21 Feb 2005
Posts: 978

blank.gif
PostPosted: Wed Nov 23, 2005 8:21 am    Post subject: Reply with quote

zeroJ wrote:
lostdays wrote:
zeroJ wrote:
extra YSI link, if anyone wants Very Happy

http://s18.yousendit.com/d.aspx?id=3JZEFDWZKR08Z0EA0SQCC0P7SO

Hey, it's asking for a password. What's the password?


Confused I never put a password, well now its expired so nothing to do now Wink

Hmm... Confused
Well, I just pressed "skip" and now as there is are 3 three files in a folder. Is that what it is supposed to be?

*EDIT*
I don't mean mp3 files either. It just says "file".
_________________
*Retired from DJing*

Mixes By Me (Look on 1st post)
Back to top
View user's profile Send private message
Silkut
littl' coder


Joined: 09 May 2005
Posts: 174
Location: Angers, west coast

france.gif
PostPosted: Sat Nov 26, 2005 3:49 am    Post subject: Reply with quote

chucky1954 wrote:
Here are links on my server!

MIRROR:

user: trance
password: power

HTTP DOWNLOADS:
CD1 : Download MP3: Right-mouse click and select "Save Target As"!

CD1 : Download CUE Sheet: Right-mouse click and select "Save Target As"!

CD2: Download MP3: Right-mouse click and select "Save Target As"!

CD2 : Download CUE Sheet: Right-mouse click and select "Save Target As"!


I'd like to say that Chuck's links are still active and fast, like bittorrent's one. thanks to him ^^
_________________
Proud Trance Empire admin
----------------------------------------------------------------
Back to top
View user's profile Send private message Visit poster's website MSN Messenger
lostdays
Maigo No Nichi


Joined: 21 Feb 2005
Posts: 978

blank.gif
PostPosted: Sat Nov 26, 2005 7:15 am    Post subject: Reply with quote

Well, I just ended up using the megaupload link, which actually wasn't as slow as it was last time I tried to download this mix using that link. Well, I have it now, but I haven't had a chance yet to listen to it. I'm sure it will be good, ofcourse. Wink
_________________
*Retired from DJing*

Mixes By Me (Look on 1st post)
Back to top
View user's profile Send private message
DJMarkIIdx
Justine's Stalker


Joined: 23 Nov 2004
Posts: 289
Location: Illinois

usa.gif
PostPosted: Sat Nov 26, 2005 9:27 pm    Post subject: Reply with quote

I-E-I-E-I IM YOUR LITTLE BUTTERFLY, GREEN BLACK AND BLUUUUE MAKE THE COLORS IN THE SKY.

Oh wrong Butterfly. Sorry. In my absense I haven't heard this mix yet (aka I suck) but I'm getting it now! Cant wait!
_________________
Back to top
View user's profile Send private message AIM Address Yahoo Messenger MSN Messenger
Thelonious_Monk
Poster


Joined: 28 Nov 2005
Posts: 1
Location: Pfälz, Germany

germany.gif
PostPosted: Mon Nov 28, 2005 11:41 am    Post subject: Reply with quote

Nice mix. I am a big fan.
Back to top
View user's profile Send private message
KnightBreed
Poster


Joined: 13 May 2005
Posts: 1

blank.gif
PostPosted: Thu Dec 01, 2005 2:35 pm    Post subject: Reply with quote

Just caught the replay on DI. Good show and thanks for the download links. Been listening to DI for some time now and I always look forward to the djGT, Project C, dj Moo, etc sets.
Back to top
View user's profile Send private message
Doctor Bob
Da Fan


Joined: 16 Jan 2005
Posts: 1098
Location: Holland

netherlands.gif
PostPosted: Fri Dec 02, 2005 3:56 pm    Post subject: Reply with quote

Mag1ca wrote:
Here is finally the backcover of the Guest Kyau vs Albert mix:

click here



Greetz


Mag1ca


Hi my friend,

I noticed you switched the tracks 8 & 9.
TRACK 08 AUDIO
TITLE "Guiseppe Ottaviani - Linking People"
TRACK 09 AUDIO
TITLE "Galen Behr - Time Will Tell"

??
_________________
too young to be old



GT vs Project C LIVE @ Holland??
Back to top
View user's profile Send private message Send e-mail
Mag1ca
Da Magical DJ


Joined: 06 Mar 2005
Posts: 623
Location: Holland

netherlands.gif
PostPosted: Sat Dec 03, 2005 8:15 am    Post subject: Reply with quote

i don`t know m8, i will check it, and if you're right i will solve that problem!



greetz


Mag1ca
_________________

https://soundcloud.com/remco-van-daalen
.:Vote:. .:For:. <MAG1CA> .:@:. .:thedjlist.com:.
Back to top
View user's profile Send private message Visit poster's website
Doctor Bob
Da Fan


Joined: 16 Jan 2005
Posts: 1098
Location: Holland

netherlands.gif
PostPosted: Sat Dec 03, 2005 9:07 am    Post subject: Reply with quote

Mag1ca wrote:
i don`t know m8, i will check it, and if you're right i will solve that problem!



greetz


Mag1ca


Confused Confused
Dear Mag1ca, now I don't know it for sure, cause I see in the cue list this:
TRACK 08 AUDIO
TITLE "Guiseppe Ottaviani - Linking People"
INDEX 01 37:31:00
TRACK 09 AUDIO
TITLE "Galen Behr - Time Will Tell"
INDEX 01 44:13:00
But Shumba did the same in his backcover, so I think we need the DJ or someone who knows the songs.
The tracks are unknown to me.


GT & PC???
_________________
too young to be old



GT vs Project C LIVE @ Holland??
Back to top
View user's profile Send private message Send e-mail
typeR
Poster


Joined: 28 Nov 2005
Posts: 8

usa.gif
PostPosted: Sat Dec 03, 2005 4:27 pm    Post subject: Reply with quote

this is a very nice album! ty =D
Back to top
View user's profile Send private message
djGT
Da Man


Joined: 22 Jul 2004
Posts: 6605
Location: The OC

usa.gif
PostPosted: Mon Dec 05, 2005 9:53 am    Post subject: Reply with quote

Doctor Bob wrote:
Mag1ca wrote:
i don`t know m8, i will check it, and if you're right i will solve that problem!



greetz


Mag1ca


Confused Confused
Dear Mag1ca, now I don't know it for sure, cause I see in the cue list this:
TRACK 08 AUDIO
TITLE "Guiseppe Ottaviani - Linking People"
INDEX 01 37:31:00
TRACK 09 AUDIO
TITLE "Galen Behr - Time Will Tell"
INDEX 01 44:13:00
But Shumba did the same in his backcover, so I think we need the DJ or someone who knows the songs.
The tracks are unknown to me.


GT & PC???

Supposedly, Kyau & Albert mixed up track #8 & #9 in their tracklist, I need to update the CUE sheet when I have a chance. Wink
_________________
Voices Of Summer (Dreamer + Dreaming)

Facebook :: Twitter :: MySpace :: TRACKER - Please help seed the torrents, especially those with zero seeders!
Back to top
View user's profile Send private message Visit poster's website AIM Address
dj_faria's_dream
Da Fan


Joined: 07 Feb 2005
Posts: 485
Location: Norway

norway.gif
PostPosted: Mon Dec 05, 2005 10:00 am    Post subject: Reply with quote

DjGT; Good day my friend!!

Hope you have a great life!!

I wish I had half of your skills when it comes to djing..

I wish you the best!!
_________________
Please forgive me, if I write anything wrong..

Best regards from Norway!!
Back to top
View user's profile Send private message Send e-mail
zeroJ
Da Moderator


Joined: 13 Aug 2004
Posts: 3293
Location: Gatineau, Quebec

canada.gif
PostPosted: Mon Dec 05, 2005 10:22 am    Post subject: Reply with quote

djGT wrote:
Doctor Bob wrote:
Mag1ca wrote:
i don`t know m8, i will check it, and if you're right i will solve that problem!



greetz


Mag1ca


Confused Confused
Dear Mag1ca, now I don't know it for sure, cause I see in the cue list this:
TRACK 08 AUDIO
TITLE "Guiseppe Ottaviani - Linking People"
INDEX 01 37:31:00
TRACK 09 AUDIO
TITLE "Galen Behr - Time Will Tell"
INDEX 01 44:13:00
But Shumba did the same in his backcover, so I think we need the DJ or someone who knows the songs.
The tracks are unknown to me.


GT & PC???

Supposedly, Kyau & Albert mixed up track #8 & #9 in their tracklist, I need to update the CUE sheet when I have a chance. Wink


oh, they mixed them up, sure pass the blame, lol Laughing
_________________
Vote for
zeroJ @ The DJ List!


Back to top
View user's profile Send private message Send e-mail Visit poster's website
Doctor Bob
Da Fan


Joined: 16 Jan 2005
Posts: 1098
Location: Holland

netherlands.gif
PostPosted: Mon Dec 05, 2005 12:57 pm    Post subject: Reply with quote

zeroJ wrote:
djGT wrote:
Doctor Bob wrote:
Mag1ca wrote:
i don`t know m8, i will check it, and if you're right i will solve that problem!



greetz


Mag1ca


Confused Confused
Dear Mag1ca, now I don't know it for sure, cause I see in the cue list this:
TRACK 08 AUDIO
TITLE "Guiseppe Ottaviani - Linking People"
INDEX 01 37:31:00
TRACK 09 AUDIO
TITLE "Galen Behr - Time Will Tell"
INDEX 01 44:13:00
But Shumba did the same in his backcover, so I think we need the DJ or someone who knows the songs.
The tracks are unknown to me.


GT & PC???

Supposedly, Kyau & Albert mixed up track #8 & #9 in their tracklist, I need to update the CUE sheet when I have a chance. Wink


oh, they mixed them up, sure pass the blame, lol Laughing


Ah, thanks
Mystery solved Wink
_________________
too young to be old



GT vs Project C LIVE @ Holland??
Back to top
View user's profile Send private message Send e-mail
_los_
Poster


Joined: 31 Oct 2005
Posts: 5
Location: Santa Cruz, CA

usa.gif
PostPosted: Mon Dec 05, 2005 10:24 pm    Post subject: Reply with quote

wow. love PM. looped on the mp3 player. -=D
Back to top
View user's profile Send private message AIM Address
maxxis
Poster


Joined: 06 Dec 2005
Posts: 2
Location: near stuttgart

germany.gif
PostPosted: Tue Dec 06, 2005 12:05 pm    Post subject: Reply with quote

really very good. i like it all time. many thanks especially 2 cucky 4 offering a mirror.

greetz Very Happy
Back to top
View user's profile Send private message
chucky1954
Poster


Joined: 06 Oct 2005
Posts: 22

germany.gif
PostPosted: Wed Dec 07, 2005 7:03 am    Post subject: Reply with quote

maxxis wrote:
really very good. i like it all time. many thanks especially 2 cucky 4 offering a mirror.

greetz Very Happy


No problem, will the host the files for a long time!!

War die Geschwindigkeit ok?

Mfg
Back to top
View user's profile Send private message
ZackCDLVI
Poster


Joined: 20 Mar 2005
Posts: 100

usa.gif
PostPosted: Thu Dec 08, 2005 10:33 pm    Post subject: Reply with quote

Currently the AM Mix turns me more on then the PM mix, but thats just my opinon. *shurgs* Its always the AM mixs. XD

Anyway, your mixs (including these) turn me on like ever! The AM Mix, and only the AM Mix, was sorta like a review of all the mixs with each song played from differnt mounths and times. Well done. Reminds me a little to much of the summer though with Fragile - Inertia (Stel & Good Newz Remix) and others after it, but I'll live. Laughing

Can't wait for the December mix coming out soon. Wink
Jingle Bells! XD
_________________
Stay frosty, Squeaks
Back to top
View user's profile Send private message
djGT
Da Man


Joined: 22 Jul 2004
Posts: 6605
Location: The OC

usa.gif
PostPosted: Sat Dec 10, 2005 10:01 am    Post subject: Reply with quote

zeroJ wrote:
djGT wrote:
Doctor Bob wrote:
Mag1ca wrote:
i don`t know m8, i will check it, and if you're right i will solve that problem!



greetz


Mag1ca


Confused Confused
Dear Mag1ca, now I don't know it for sure, cause I see in the cue list this:
TRACK 08 AUDIO
TITLE "Guiseppe Ottaviani - Linking People"
INDEX 01 37:31:00
TRACK 09 AUDIO
TITLE "Galen Behr - Time Will Tell"
INDEX 01 44:13:00
But Shumba did the same in his backcover, so I think we need the DJ or someone who knows the songs.
The tracks are unknown to me.


GT & PC???

Supposedly, Kyau & Albert mixed up track #8 & #9 in their tracklist, I need to update the CUE sheet when I have a chance. Wink


oh, they mixed them up, sure pass the blame, lol Laughing

im always happy to share! Razz
_________________
Voices Of Summer (Dreamer + Dreaming)

Facebook :: Twitter :: MySpace :: TRACKER - Please help seed the torrents, especially those with zero seeders!
Back to top
View user's profile Send private message Visit poster's website AIM Address
omega1n
Poster


Joined: 12 Jan 2005
Posts: 1180
Location: Denver

usa.gif
PostPosted: Sun Dec 11, 2005 7:25 pm    Post subject: Reply with quote

I love yhe Kyau Vs. Albert mix, even though most people are hatin!! Great job guys GT & PC
_________________

www.sergiosantana.net
www.triaddragons.com
Back to top
View user's profile Send private message
slickgino
Poster


Joined: 01 Oct 2004
Posts: 16

canada.gif
PostPosted: Mon Dec 12, 2005 8:30 pm    Post subject: Reply with quote

I am listening to this right now, and I must say it is pure OWNAGE! Keep up the great work boys! Paw
Back to top
View user's profile Send private message
de stacaravan
Poster


Joined: 24 Oct 2004
Posts: 35
Location: Zoetermeer

netherlands.gif
PostPosted: Thu Dec 15, 2005 6:53 am    Post subject: Reply with quote

this "PM" rules! What a great mix, fantastic. Makes you wanna party/dance, not chill/sleep for a change (bit exaggerated) Very Happy

I'm curious about the new mix from next week, can't wait no more Razz
Back to top
View user's profile Send private message MSN Messenger
dziqwwa
Poster


Joined: 19 Dec 2005
Posts: 1

poland.gif
PostPosted: Mon Dec 19, 2005 7:41 am    Post subject: Reply with quote

You are the best!!!!!!!!! Exclamation I love this music,great music !!!!!
greetings from Poland!!!!!!!!!! Twisted Evil
Back to top
View user's profile Send private message
Dj HiNRG
Poster


Joined: 08 Apr 2005
Posts: 74
Location: Paris 2 Chicago 138bpm

italy.gif
PostPosted: Tue Dec 20, 2005 2:19 pm    Post subject: Reply with quote

A bit late but dangit! Bring some down here in Austin!
_________________
:: weekend came :: pre.party :: cruisin topdown :: feel the nightlife and the sound of dj.hinrg ::
Back to top
View user's profile Send private message Visit poster's website AIM Address
Display posts from previous:   
Post new topic   Reply to topic    Generation Trance Forum Index -> GT vs Project C (past - 2005) All times are GMT - 8 Hours
Goto page Previous  1, 2, 3, 4, 5, 6, 7, 8  Next
Page 7 of 8

 
Jump to:  
You cannot post new topics in this forum
You cannot reply to topics in this forum
You cannot edit your posts in this forum
You cannot delete your posts in this forum
You cannot vote in polls in this forum


Powered by phpBB © 2001, 2005 phpBB Group

Powered by CloudFlare