Generation Trance
Vote for GT  at The DJ List! Vote for GT and Project C at The DJ List! Vote for Project C  at The DJ List!
 FAQFAQ   SearchSearch   Chat   MemberlistMemberlist   UsergroupsUsergroups   RegisterRegister 
 ProfileProfile   Log in to check your private messagesLog in to check your private messages   Log inLog in 
Cue Sheets

 
Post new topic   Reply to topic    Generation Trance Forum Index -> Support
View previous topic :: View next topic  
Author Message
zeroJ
Da Moderator


Joined: 13 Aug 2004
Posts: 3293
Location: Gatineau, Quebec

canada.gif
PostPosted: Sun Sep 19, 2004 8:14 pm    Post subject: Cue Sheets Reply with quote

For all those who, somehow messed up and errased your cue files for no apparent reason. Here are some Cue files for some of Gt's and Project C's sets. I'm missing some, because, well, for no apparent reason. So feel free to add the cue files that are missing


THank You's would be appreaciated
_________________
Vote for
zeroJ @ The DJ List!




Last edited by zeroJ on Mon Nov 22, 2004 7:27 pm; edited 1 time in total
Back to top
View user's profile Send private message Send e-mail Visit poster's website
zeroJ
Da Moderator


Joined: 13 Aug 2004
Posts: 3293
Location: Gatineau, Quebec

canada.gif
PostPosted: Sun Sep 19, 2004 8:15 pm    Post subject: Reply with quote

PERFORMER "dj GT"
TITLE "Voices Of Autumn 2004 Live Elements (Earth)"
FILE "(CD1) dj GT - Voices Of Autumn 2004 Live Elements (Earth).mp3" MP3
TRACK 01 AUDIO
TITLE "Brian Eno - An Ending (Leama & Moor Remix)"
FLAGS DCP
INDEX 01 00:00:00
TRACK 02 AUDIO
TITLE "Ridgewalkers Feat. El - Find (Andy Moor Remix)"
FLAGS DCP
INDEX 01 09:59:00
TRACK 03 AUDIO
TITLE "Above & Beyond - No One On Earth (Sonorous Remix)"
FLAGS DCP
INDEX 01 17:20:00
TRACK 04 AUDIO
TITLE "Alucard Pres. Yana Key - Eyes Of Perfect Stranger"
FLAGS DCP
INDEX 01 24:12:00
TRACK 05 AUDIO
TITLE "Pacific 2 Feat. Anita Kelsey - Have 2B With U (Matthew Dekay Remix)"
FLAGS DCP
INDEX 01 33:13:00
TRACK 06 AUDIO
TITLE "Aven - All I Want (Ferry Corsten Remix)"
FLAGS DCP
INDEX 01 38:59:00
TRACK 07 AUDIO
TITLE "Deepest Blue - Is It A Sin (Cicada Stadium Remix)"
FLAGS DCP
INDEX 01 45:52:00
TRACK 08 AUDIO
TITLE "BT Feat. JC Chasez - Force Of Gravity (Ferry Corsten Remix)"
FLAGS DCP
INDEX 01 52:06:00
TRACK 09 AUDIO
TITLE "Kyau vs Albert Feat. Julie - Not With You (Ronski Speed Remix)"
FLAGS DCP
INDEX 01 60:25:00
TRACK 10 AUDIO
TITLE "Mike Shiver & Elevation - Hurricane (Vocal Mix)"
FLAGS DCP
INDEX 01 68:14:00

_________________
Vote for
zeroJ @ The DJ List!




Last edited by zeroJ on Sun Sep 19, 2004 8:28 pm; edited 2 times in total
Back to top
View user's profile Send private message Send e-mail Visit poster's website
zeroJ
Da Moderator


Joined: 13 Aug 2004
Posts: 3293
Location: Gatineau, Quebec

canada.gif
PostPosted: Sun Sep 19, 2004 8:17 pm    Post subject: Reply with quote

Performer "Project C"
TITLE "Voices Of Autumn 2004 Live Elements (Water)"

FILE "(CD2) Project C - Voices Of Autumn 2004 Live Elements (Water).mp3" MP3
TRACK 01 AUDIO
TITLE "Yahel ft. Melanie - You Feel"
INDEX 01 00:00:00
TRACK 02 AUDIO
TITLE "Blank & Jones - Perfect Silence (Perry O'Neil Remix)"
INDEX 01 08:32:28
TRACK 03 AUDIO
TITLE "Above & Beyond - No One On Earth (Smith & Pledger Remix)"
INDEX 01 14:13:60
TRACK 04 AUDIO
TITLE "Corderoy - Deeper (Vocal Mix)"
INDEX 01 19:12:20
TRACK 05 AUDIO
TITLE "Digital Deliquents - Forever (Gareth Emery Remix)"
INDEX 01 26:19:30
TRACK 06 AUDIO
TITLE "Inner Motion - (How Did You) Wait For Me (Scarab Remix)"
INDEX 01 32:43:06
TRACK 07 AUDIO
TITLE "Marco V - I Feel You (Thomas Datts Remix)"
INDEX 01 39:34:57
TRACK 08 AUDIO
TITLE "Neo & Farina ft. Alba Rossa - The Key (Mesh Remix)"
INDEX 01 45:23:18
TRACK 09 AUDIO
TITLE "Erik De Konig - Secretly (Cor Fijinman Remix)"
INDEX 01 53:40:69
TRACK 10 AUDIO
TITLE "John 00 Fleming - I'm Not Fooled (Original Mix)"
INDEX 01 60:54:53

_________________
Vote for
zeroJ @ The DJ List!




Last edited by zeroJ on Sun Sep 19, 2004 8:27 pm; edited 1 time in total
Back to top
View user's profile Send private message Send e-mail Visit poster's website
zeroJ
Da Moderator


Joined: 13 Aug 2004
Posts: 3293
Location: Gatineau, Quebec

canada.gif
PostPosted: Sun Sep 19, 2004 8:18 pm    Post subject: Reply with quote

PERFORMER "GT VS Project C"
TITLE "Voices Of Autumn 2004 Live Elements (Wind)"

FILE "(CD3) dj GT vs Project C - Voices Of Autumn 2004 Live Elements (Wind).mp3" MP3
TRACK 01 AUDIO
TITLE "Andain - Beautiful Things (Elevation Remix)"
INDEX 01 00:00:00
TRACK 02 AUDIO
TITLE "Deepsky ft. Jes Breden - Talk Like A Stranger (Burufunk Remix)"
INDEX 01 08:33:25
TRACK 03 AUDIO
TITLE "Tone Depth & Sultan ft. Stephanie Vezina - Broken (Jiva Remix)"
INDEX 01 13:48:40
TRACK 04 AUDIO
TITLE "Markus Schulz - Sentient (Vocal Mix)"
INDEX 01 21:08:41
TRACK 05 AUDIO
TITLE "Bjork - Pagan Poetry (Infusion Remix)"
INDEX 01 26:31:04
TRACK 06 AUDIO
TITLE "John Creamer & Stephane K - I Wish You Were Here (Lexicon Avenue Vocal Remix)"
INDEX 01 33:50:56
TRACK 07 AUDIO
TITLE "Paul Oakenfold - Hold your hand (Bill Hamel Remix)"
INDEX 01 42:58:59
TRACK 08 AUDIO
TITLE "Britney Spears - Everytime (Scumfrog Vocal Remix)"
INDEX 01 49:05:27
TRACK 09 AUDIO
TITLE "Kyau vs Albert - Not With You (Sonorus Remix)"
INDEX 01 56:25:33
TRACK 10 AUDIO
TITLE "Plummet - Cherish The Day (Stefano Sorrentino Remix)"
INDEX 01 63:45:29

_________________
Vote for
zeroJ @ The DJ List!




Last edited by zeroJ on Sun Sep 19, 2004 8:27 pm; edited 1 time in total
Back to top
View user's profile Send private message Send e-mail Visit poster's website
zeroJ
Da Moderator


Joined: 13 Aug 2004
Posts: 3293
Location: Gatineau, Quebec

canada.gif
PostPosted: Sun Sep 19, 2004 8:20 pm    Post subject: Reply with quote

PERFORMER "GT VS Project C"
TITLE "Voices Of Autumn 2004 Live Elements (Fire)"

FILE "(CD4) dj GT vs Project C - Voices Of Autumn 2004 Live Elements (Fire).mp3" MP3
TRACK 01 AUDIO
TITLE "Andy Hunter - Go (Antillas Remix)"
INDEX 01 00:00:00
TRACK 02 AUDIO
TITLE "Terry Bones vs Fred Baker - Return To Innocence (Mr Sam Remix)"
INDEX 01 09:18:28
TRACK 03 AUDIO
TITLE "Lightscape - Inner Warmth (Phynns Overheated Remix)"
INDEX 01 15:33:66
TRACK 04 AUDIO
TITLE "Airbase vs DJ Stigma - Hunting 2004"
INDEX 01 20:49:12
TRACK 05 AUDIO
TITLE "Hemstock & Jennings - Crimson Soil (Icone Remix)"
INDEX 01 28:07:18
TRACK 06 AUDIO
TITLE "Perpetua ft. Kyra - Second Season (Factoria Remix)"
INDEX 01 34:19:07
TRACK 07 AUDIO
TITLE "Electrovoya - Whispers (Factoria Remix)"
INDEX 01 42:25:53
TRACK 08 AUDIO
TITLE "Britney Spears - Everytime (Above & Beyond Club Mix)"
INDEX 01 49:22:43
TRACK 09 AUDIO
TITLE "John 00 Fleming - I'm Not Fooled (Smith & Pledger Remix)"
INDEX 01 56:12:34
TRACK 10 AUDIO
TITLE "Mike Koglin ft. DJ Uto - Yoake (Mike Koglin Remix)"
INDEX 01 62:20:61
TRACK 11 AUDIO
TITLE "Neo & Farina ft. Alba Rossa - The Key (Mike Shiver Remix)"
INDEX 01 69:02:66

_________________
Vote for
zeroJ @ The DJ List!




Last edited by zeroJ on Sun Sep 19, 2004 8:26 pm; edited 1 time in total
Back to top
View user's profile Send private message Send e-mail Visit poster's website
zeroJ
Da Moderator


Joined: 13 Aug 2004
Posts: 3293
Location: Gatineau, Quebec

canada.gif
PostPosted: Sun Sep 19, 2004 8:22 pm    Post subject: Reply with quote

PERFORMER "dj GT"
TITLE "Voices Of Summer 2004 Connected Love CD1"
FILE "dj GT - Voices Of Summer 2004 Connected Love CD1.mp3" MP3
TRACK 01 AUDIO
TITLE "Jurgen Vries Feat Andrea Britton - Take My Hand"
FLAGS DCP
INDEX 01 00:00:00
TRACK 02 AUDIO
TITLE "Kota - Waiting (12 Inch Vocal Remix)"
FLAGS DCP
INDEX 01 08:27:00
TRACK 03 AUDIO
TITLE "DT8 - The Sun Is Shining (Darren Tate Remix)"
FLAGS DCP
INDEX 01 16:05:00
TRACK 04 AUDIO
TITLE "Signum Feat Anita Kelsey - Come Around Again (Vocal Extended Remix)"
FLAGS DCP
INDEX 01 23:07:00
TRACK 05 AUDIO
TITLE "Inner Motion - Wait For Me (Inzite Remix)"
FLAGS DCP
INDEX 01 30:37:00
TRACK 06 AUDIO
TITLE "Sun Decade - Follow You (Mike Shiver's Catching Sun Remix)"
FLAGS DCP
INDEX 01 37:11:00
TRACK 07 AUDIO
TITLE "Blank & Jones - Mind Of The Wonderful (Re-Locate Remix)"
FLAGS DCP
INDEX 01 45:16:00
TRACK 08 AUDIO
TITLE "Matt Hardwick vs Smith & Pledger - Connected"
FLAGS DCP
INDEX 01 50:26:00
TRACK 09 AUDIO
TITLE "Oceandrive - Reach Out (Tranceanergx Remix)"
FLAGS DCP
INDEX 01 56:33:00
TRACK 10 AUDIO
TITLE "Ferry Corsten - It's Time (Agnelli & Nelson Remix)"
FLAGS DCP
INDEX 01 63:49:00
TRACK 11 AUDIO
TITLE "Tiesto Feat BT - Love Comes Again"
FLAGS DCP
INDEX 01 70:37:00

_____________________________________
PERFORMER "dj GT"
TITLE "Voices Of Summer 2004 Walking Soul CD2"
FILE "dj GT - Voices Of Summer 2004 Walking Soul CD2.mp3" MP3
TRACK 01 AUDIO
TITLE "Sarah Mclachlan - World On Fire (Junkie XL Remix)"
FLAGS DCP
INDEX 01 00:00:00
TRACK 02 AUDIO
TITLE "Oceanlab Feat Justine Suissa - Satellite (Alucard's Saving Spaceghost Remix)"
FLAGS DCP
INDEX 01 11:53:00
TRACK 03 AUDIO
TITLE "Deepsky Feat Jes Brieden - Talk Like A Stranger (Markus Schulz ColdHarbour Remix)"
FLAGS DCP
INDEX 01 20:27:00
TRACK 04 AUDIO
TITLE "Kristine W - Save My Soul (Gabriel & Dresden Remix)"
FLAGS DCP
INDEX 01 28:33:00
TRACK 05 AUDIO
TITLE "DJ Tiesto Feat Kirsty Hawkshaw - Walking On Clouds"
FLAGS DCP
INDEX 01 35:56:00
TRACK 06 AUDIO
TITLE "Jurgen Vries - Take My Hand (Peace Division Remix)"
FLAGS DCP
INDEX 01 42:06:00
TRACK 07 AUDIO
TITLE "Kinnie Starr - Alright (Blackwatch Vocal Club Remix)"
FLAGS DCP
INDEX 01 49:16:00
TRACK 08 AUDIO
TITLE "BT - The Great Escape (Attention Deficit Remix)"
FLAGS DCP
INDEX 01 52:57:00
TRACK 09 AUDIO
TITLE "Whirlpool - Under The Sun (Solarstone Remix)"
FLAGS DCP
INDEX 01 62:10:00
TRACK 10 AUDIO
TITLE "Adam White & Andy Moor Presents Whiteroom - The White Room (Vocal Remix)"
FLAGS DCP
INDEX 01 71:13:00

_________________
Vote for
zeroJ @ The DJ List!


Back to top
View user's profile Send private message Send e-mail Visit poster's website
zeroJ
Da Moderator


Joined: 13 Aug 2004
Posts: 3293
Location: Gatineau, Quebec

canada.gif
PostPosted: Sun Sep 19, 2004 8:25 pm    Post subject: Reply with quote

PERFORMER "Project C"

TITLE "Strange Roads 2004"

FILE "Project C - Strange Roads 2004.mp3" MP3
TRACK 01 AUDIO
TITLE "Portishead - Roads (Sultan & Tonedepth Remix)"
INDEX 01 00:00:00
TRACK 02 AUDIO
TITLE "Evolution ft. Jayne Hanna - Walking On Fire (Evolution Club Mix)"
INDEX 01 09:01:28
TRACK 03 AUDIO
TITLE "Bossanova - Stone Cold (Original Mix)"
INDEX 01 18:28:67
TRACK 04 AUDIO
TITLE "Liquid Love meets Ernesto vs Bastian - Being Single (Liquid Love Remix)"
INDEX 01 24:24:24
TRACK 05 AUDIO
TITLE "Signum Ft. Anita Kelsey - Come Around Again (Vocal Extended Mix)"
INDEX 01 31:30:06
TRACK 06 AUDIO
TITLE "Above & Beyond - No One On Earth (Gabriel & Dresden Remix)"
INDEX 01 38:35:54
TRACK 07 AUDIO
TITLE "Matt Hardwick Vs Smith And Pledger - Connected (original mix)"
INDEX 01 44:59:07
TRACK 08 AUDIO
TITLE "TIESTO - Just BE"
INDEX 01 50:40:21
TRACK 09 AUDIO
TITLE "Saltwater - Strange (Alphazone Remix)"
INDEX 01 58:18:19
TRACK 10 AUDIO
TITLE "Cosmic Culture - Time Of Your Life (Original Extended Mix)"
INDEX 01 64:54:18

_________________
Vote for
zeroJ @ The DJ List!


Back to top
View user's profile Send private message Send e-mail Visit poster's website
zeroJ
Da Moderator


Joined: 13 Aug 2004
Posts: 3293
Location: Gatineau, Quebec

canada.gif
PostPosted: Wed Nov 10, 2004 4:34 pm    Post subject: Reply with quote

[size=9]PERFORMER "dj GT"
TITLE "Voices Of Summer 2003 Morning CD1"
FILE "dj GT - Voices Of Summer 2003 Morning CD1.mp3" MP3
TRACK 01 AUDIO
TITLE "Kyau vs Albert feat Damae - Velvet Morning (Mirco de Govia Remix)"
FLAGS DCP
INDEX 01 00:00:00
TRACK 02 AUDIO
TITLE "Greg Murray - I Feel Loved"
FLAGS DCP
INDEX 01 06:27:00
TRACK 03 AUDIO
TITLE "Nova - All This Love (GTR Remix)"
FLAGS DCP
INDEX 01 13:32:00
TRACK 04 AUDIO
TITLE "Michael Splint pres Eruption - I Feel Free (Inzite Remix)"
FLAGS DCP
INDEX 01 18:21:00
TRACK 05 AUDIO
TITLE "Andain - Beautiful Things"
FLAGS DCP
INDEX 01 23:58:00
TRACK 06 AUDIO
TITLE "Aurora Feat Naimee Coleman - Sleeping Satellite (Super 8 Remix)"
FLAGS DCP
INDEX 01 30:11:00
TRACK 07 AUDIO
TITLE "Fire and Ice feat Edvika - Close To Me (Vocal Extended Remix)"
FLAGS DCP
INDEX 01 35:35:00
TRACK 08 AUDIO
TITLE "Delerium - After All (Svenson & Gielen Remix)"
FLAGS DCP
INDEX 01 41:13:00
TRACK 09 AUDIO
TITLE "Above & Beyond - Far From In Love (Joker Remix)"
FLAGS DCP
INDEX 01 47:30:00
TRACK 10 AUDIO
TITLE "Sun Decade - Im Alone (Mirco de Govia Vocal Remix)"
FLAGS DCP
INDEX 01 54:20:00
TRACK 11 AUDIO
TITLE "Plummet - Damaged (Antillas Remix)"
FLAGS DCP
INDEX 01 60:42:00
TRACK 12 AUDIO
TITLE "Motocycle - As The Rush Comes (Dadxter Dub)"
FLAGS DCP
INDEX 01 65:27:00

PERFORMER "dj GT"
TITLE "Voices Of Summer 2003 Sunlight CD2"
FILE "dj GT - Voices Of Summer 2003 Sunlight CD2.mp3" MP3
TRACK 01 AUDIO
TITLE "Nalin & Kane - Beachball (Gabriel & Dresden Remix)"
FLAGS DCP
INDEX 01 00:00:00
TRACK 02 AUDIO
TITLE "Coldplay - Clocks (Gabriel & Dresden Remix)"
FLAGS DCP
INDEX 01 09:27:00
TRACK 03 AUDIO
TITLE "DJ Sammy - Sunlight (Pulser Remix)"
FLAGS DCP
INDEX 01 15:26:00
TRACK 04 AUDIO
TITLE "Goldenscan - Sunrise 2003 (Ronski Speed Remix)"
FLAGS DCP
INDEX 01 22:14:00
TRACK 05 AUDIO
TITLE "Solar Stone - Seven Cities (Armin Van Buuren Vocal Remix)"
FLAGS DCP
INDEX 01 28:14:00
TRACK 06 AUDIO
TITLE "Hydra - Affinity (Thrillseeker's Dub Remix)"
FLAGS DCP
INDEX 01 34:41:00
TRACK 07 AUDIO
TITLE "Little Wonder - Eclipse"
FLAGS DCP
INDEX 01 41:09:00
TRACK 08 AUDIO
TITLE "Mike Shiver feat Hanna - Feelings (Instrumental Remix)"
FLAGS DCP
INDEX 01 48:44:00
TRACK 09 AUDIO
TITLE "Kyau vs Albert - Save Me (Hiver & Hammer Ground Control Remix)"
FLAGS DCP
INDEX 01 55:36:00
TRACK 10 AUDIO
TITLE "IIO - Smooth (Airbase Remix)"
FLAGS DCP
INDEX 01 63:20:00
TRACK 11 AUDIO
TITLE "State One - Forever and a Day (Michael Woods Remix)"
FLAGS DCP
INDEX 01 70:06:00

PERFORMER "dj GT"
TITLE "Voices Of Summer 2003 Moonshine CD3"
FILE "dj GT - Voices Of Summer 2003 Moonshine CD3.mp3" MP3
TRACK 01 AUDIO
TITLE "Avril Lavigne - I'm With You (Leama & Moor Remix)"
FLAGS DCP
INDEX 01 00:00:00
TRACK 02 AUDIO
TITLE "Project Medusa Vs Exor - Moonshine (Vocal Club Remix)"
FLAGS DCP
INDEX 01 07:00:00
TRACK 03 AUDIO
TITLE "Armin Van Buuren feat Victoria Horn - Wait For You (Song For The Ocean)"
FLAGS DCP
INDEX 01 12:15:00
TRACK 04 AUDIO
TITLE "Desiderio - Starlight (Armin Van Buuren Remix)"
FLAGS DCP
INDEX 01 18:19:00
TRACK 05 AUDIO
TITLE "Andy Hunter - Amazing (Summit's Amazing Club Remix)"
FLAGS DCP
INDEX 01 25:19:00
TRACK 06 AUDIO
TITLE "Ghostland feat Sinead O' Connor - Guide Me God (Paul Van Dyk Remix)"
FLAGS DCP
INDEX 01 33:40:00
TRACK 07 AUDIO
TITLE "4 Strings - Let It Rain (Mystery Remix)"
FLAGS DCP
INDEX 01 40:45:00
TRACK 08 AUDIO
TITLE "Goldenscan - Of Our Times"
FLAGS DCP
INDEX 01 48:16:00
TRACK 09 AUDIO
TITLE "Aurora - The Day It Rained Forever (Monoboy Vocal Remix)"
FLAGS DCP
INDEX 01 55:45:00
TRACK 10 AUDIO
TITLE "Kansai - Remember This Night (Hemstock & Jennings Remix)"
FLAGS DCP
INDEX 01 61:52:00
TRACK 11 AUDIO
TITLE "Y Traxx - Mystery Land 2003 (Fred Baker & Mr Sam Remix)"
FLAGS DCP
INDEX 01 68:11:00
[/size]
_________________
Vote for
zeroJ @ The DJ List!


Back to top
View user's profile Send private message Send e-mail Visit poster's website
Xanderin
Da Fan


Joined: 09 Nov 2004
Posts: 57
Location: Minnesota

usa.gif
PostPosted: Wed Dec 08, 2004 12:16 pm    Post subject: Reply with quote

Just some, eh? Well, I didn't delete any of my cue files, but this is helpful in case I ever care to make my own. Thank you. Very Happy Oh, and to make this into a cue file, I just paste the text into a .txt file and then alter the extension to .cue, right?
_________________
A pirate walks into a bar with a helm (ship's steering wheel) in his pants. Bartend asks him: "Why do you have a steering wheel in your pants? Doesn't it hurt?" The pirate responds: "Yarrr! It's drivin' me nuts!"
Back to top
View user's profile Send private message Send e-mail Visit poster's website AIM Address Yahoo Messenger MSN Messenger
zeroJ
Da Moderator


Joined: 13 Aug 2004
Posts: 3293
Location: Gatineau, Quebec

canada.gif
PostPosted: Wed Dec 08, 2004 3:55 pm    Post subject: Reply with quote

Xanderin wrote:
Just some, eh? Well, I didn't delete any of my cue files, but this is helpful in case I ever care to make my own. Thank you. Very Happy Oh, and to make this into a cue file, I just paste the text into a .txt file and then alter the extension to .cue, right?


Thats right Smile
_________________
Vote for
zeroJ @ The DJ List!


Back to top
View user's profile Send private message Send e-mail Visit poster's website
Xanderin
Da Fan


Joined: 09 Nov 2004
Posts: 57
Location: Minnesota

usa.gif
PostPosted: Tue Dec 14, 2004 7:27 pm    Post subject: Reply with quote

Sweet...
_________________
A pirate walks into a bar with a helm (ship's steering wheel) in his pants. Bartend asks him: "Why do you have a steering wheel in your pants? Doesn't it hurt?" The pirate responds: "Yarrr! It's drivin' me nuts!"
Back to top
View user's profile Send private message Send e-mail Visit poster's website AIM Address Yahoo Messenger MSN Messenger
aznjunkie
Poster


Joined: 07 Dec 2004
Posts: 5

blank.gif
PostPosted: Tue Dec 28, 2004 9:59 am    Post subject: Cue Sheets Reply with quote

I complied all the cue sheets into a text file. You can get the text here:

http://www.geocities.com/aznjunkie/cuesheet.html

Just copy and paste into notepad and save as a cue file.
Back to top
View user's profile Send private message
zeroJ
Da Moderator


Joined: 13 Aug 2004
Posts: 3293
Location: Gatineau, Quebec

canada.gif
PostPosted: Mon Mar 07, 2005 4:09 pm    Post subject: Re: Cue Sheets Reply with quote

aznjunkie wrote:
I complied all the cue sheets into a text file. You can get the text here:

http://www.geocities.com/aznjunkie/cuesheet.html

Just copy and paste into notepad and save as a cue file.


I know its been a while since you posted, but just wanna say thanks, and you know Shumba also has a whole bunch of cue files that you can copy&paste also
_________________
Vote for
zeroJ @ The DJ List!


Back to top
View user's profile Send private message Send e-mail Visit poster's website
Display posts from previous:   
Post new topic   Reply to topic    Generation Trance Forum Index -> Support All times are GMT - 8 Hours
Page 1 of 1

 
Jump to:  
You cannot post new topics in this forum
You cannot reply to topics in this forum
You cannot edit your posts in this forum
You cannot delete your posts in this forum
You cannot vote in polls in this forum


Powered by phpBB © 2001, 2005 phpBB Group

Powered by CloudFlare