Generation Trance
Vote for GT  at The DJ List! Vote for GT and Project C at The DJ List! Vote for Project C  at The DJ List!
 FAQFAQ   SearchSearch   Chat   MemberlistMemberlist   UsergroupsUsergroups   RegisterRegister 
 ProfileProfile   Log in to check your private messagesLog in to check your private messages   Log inLog in 
VOT 078 October 2011

 
Post new topic   Reply to topic    Generation Trance Forum Index -> GT vs Project C (2010 - 2011)
View previous topic :: View next topic  

Do you like music?
Yes
0%
 0%  [ 0 ]
No
0%
 0%  [ 0 ]
Total Votes : 0

Author Message
Project C
Da Bro


Joined: 29 Jul 2004
Posts: 2082
Location: OC

usa.gif
PostPosted: Mon Feb 06, 2012 8:01 pm    Post subject: VOT 078 October 2011 Reply with quote

Check out our mix for VOT 078 October 2011 show!

1st & 2nd Hour - GT vs Project C

01. Filo and Per Feat Audrey Gallagher - This Night (Max Graham Remix)
02. Jes & Ronski Speed - Cant Stop (Taxigirl Edit)
03. Darren Tate vs. Jono Grant - Let The Light Shine In 2010 (Arty Remix)
04. Markus Schulz ft Jennifer Rene - Not The Same (Eelke Kleijn Remix)
05. Yuri Kane ft Melissa Loretta - Daylight (Club Mix)
06. George Acosta ft Kate Walsh - Nite Time
07. Bobina & Betsie Larkin - You Belong To Me (Proff Remix)
08. Lost Witness - Fade Away (Adam Brown Remix)
09. Alex Kunnari ft Emma Lock - You & Me (Original Mix)
10. Kyau & Albert - Always A Fool (2011 Rework)
11. Allure ft Jes - Show Me The Way (Tydi Remix)
12. Lange feat. Jennifer Karr - Songless (Mark Sherrys Outburst Remix)
13. Heatbeat ft Josie - Because of You (Original Mix)
14. Headstrong ft Stine Grove - Tears (Genix Remix)
15. Ernesto vs Bastian ft Susana - Dark Side Of The Moon (Marc Simz Remix)
16. Above & Beyond ft Zoe Johnston - You Got To Go (Kyau & Albert Remix)
17. Space Rockerz & Tania Zygar - Puzzle Piece (Original Mix)
18. Andy Moor ft Sue Mclaren - Fight The Fire (Original Mix)
19. Coldplay - The Scientist (Maarten de Jong Rework)
20. Gareth Emery ft Lucy Saunders - Sanctuary (Ben Gold Remix)
21. First State ft Sarah Howells - Reverie (Dash Berlin Remix)


*************************************************************
HTTP DOWNLOADS:

MIRROR #1:
1st & 2nd Hour: Download MP3
_________________
www.generationtrance.com
Back to top
View user's profile Send private message Send e-mail Visit poster's website AIM Address Yahoo Messenger
LondSilver
Poster


Joined: 24 Jan 2006
Posts: 12

blank.gif
PostPosted: Wed Feb 08, 2012 6:50 pm    Post subject: Reply with quote

This mix was amazing, I've caught in on DI several times since its original air date. I have been floored each time.

You guys still have it. You guys are amazing, and I appreciate all the years of great music you have blessed us with.
Back to top
View user's profile Send private message
tuna
Poster


Joined: 26 Apr 2010
Posts: 9
Location: houston

usa.gif
PostPosted: Thu Feb 09, 2012 1:57 am    Post subject: Reply with quote

Thank you for the link, I missed this one on di.fm but will listen now!
Back to top
View user's profile Send private message
SeaTTleSeSsionS
Poster


Joined: 05 Mar 2006
Posts: 128
Location: SEATTLE

blank.gif
PostPosted: Sun Feb 12, 2012 3:03 am    Post subject: Reply with quote

Thanks guys! I know you have busy life these days. We all appreciate your sets! Thanks again! Hope all is well. Very Happy
Back to top
View user's profile Send private message
tranceaddict_cl
Poster


Joined: 27 Dec 2004
Posts: 286
Location: Punta Arenas, Chile

chile.gif
PostPosted: Mon Feb 13, 2012 3:23 pm    Post subject: Reply with quote

SeaTTleSeSsionS wrote:
Thanks guys! I know you have busy life these days. We all appreciate your sets! Thanks again! Hope all is well. Very Happy


Your mixes used to be top notch as well, still mixing?

Cheers
Back to top
View user's profile Send private message Send e-mail
firstplace
Poster


Joined: 17 Oct 2004
Posts: 5

canada.gif
PostPosted: Tue Feb 14, 2012 9:25 am    Post subject: Reply with quote

Do you guys do any touring of the LA club scene still? I'm stuck in snowy Toronto but am just curious...
Back to top
View user's profile Send private message
cirrrocco
Poster


Joined: 12 Mar 2005
Posts: 28

blank.gif
PostPosted: Mon Mar 19, 2012 4:44 pm    Post subject: Reply with quote

This set is amazing. way better than Dec 2011 VOT. beautiful track selection.
_________________
You are a naughty girl, now go to my room!!
Back to top
View user's profile Send private message
omf
Poster


Joined: 23 Dec 2004
Posts: 44
Location: arizona, usa

blank.gif
PostPosted: Fri Jan 26, 2018 6:00 pm    Post subject: Reply with quote

Here's a CUE sheet I just made for this oldie!

Code:

PERFORMER "GT vs Project C"
TITLE "Voices of Trance 078 October 2011"
FILE "VOT October 2011.mp3" MP3
  TRACK 01 AUDIO
    TITLE "This Night (Max Graham Remix)"
    PERFORMER "Filo and Per ft Audrey Gallagher"
    INDEX 01 00:00:00
  TRACK 02 AUDIO
    TITLE "Can't Stop (Taxigirl Edit)"
    PERFORMER "Jes & Ronski Speed"
    INDEX 01 06:38:00
  TRACK 03 AUDIO
    TITLE "Let the Light Shine in 2010 (Arty Remix)"
    PERFORMER "Darren Tate vs Jono Grant"
    INDEX 01 11:43:00
  TRACK 04 AUDIO
    TITLE "Not the Same (Eelke Kleijn Remix)"
    PERFORMER "Markus Schulz ft Jennifer Rene"
    INDEX 01 17:49:40
  TRACK 05 AUDIO
    TITLE "Daylight (Club Mix)"
    PERFORMER "Yuri Kane ft Melissa Loretta"
    INDEX 01 24:43:60
  TRACK 06 AUDIO
    TITLE "Nite Time"
    PERFORMER "George Acosta ft Kate Walsh"
    INDEX 01 29:36:40
  TRACK 07 AUDIO
    TITLE "You Belong to Me (PROFF Remix)"
    PERFORMER "Bobina & Betsie Larkin"
    INDEX 01 36:26:00
  TRACK 08 AUDIO
    TITLE "Fade Away (Adam Brown Remix)"
    PERFORMER "Lost Witness"
    INDEX 01 42:40:00
  TRACK 09 AUDIO
    TITLE "You & Me (Original Mix)"
    PERFORMER "Alex Kunnari ft Emma Lock"
    INDEX 01 47:19:00
  TRACK 10 AUDIO
    TITLE "Always a Fool (2011 Rework)"
    PERFORMER "Kyau & Albert"
    INDEX 01 52:41:00
  TRACK 11 AUDIO
    TITLE "Show Me the Way (Tydi Remix)"
    PERFORMER "Allure ft Jes"
    INDEX 01 57:33:00
  TRACK 12 AUDIO
    TITLE "Songless (Mark Sherrys Outburst Remix)"
    PERFORMER "Lange ft Jennifer Karr"
    INDEX 01 63:44:00
  TRACK 13 AUDIO
    TITLE "Because of You (Original Mix)"
    PERFORMER "Heatbeat ft Josie"
    INDEX 01 68:54:00
  TRACK 14 AUDIO
    TITLE "Tears (Genix Remix)"
    PERFORMER "Headstrong ft Stine Grove"
    INDEX 01 74:01:00
  TRACK 15 AUDIO
    TITLE "Dark Side of the Moon (Marc Simz Remix)"
    PERFORMER "Ernesto vs Bastian ft Susana"
    INDEX 01 80:16:00
  TRACK 16 AUDIO
    TITLE "You Got to Go (Kyau & Albert Remix)"
    PERFORMER "Above & Beyond ft ZoĆ« Johnston"
    INDEX 01 85:47:00
  TRACK 17 AUDIO
    TITLE "Puzzle Piece (Original Mix)"
    PERFORMER "Space Rockerz & Tania Zygar"
    INDEX 01 91:03:00
  TRACK 18 AUDIO
    TITLE "Fight the Fire (Original Mix)"
    PERFORMER "Andy Moor ft Sue Mclaren"
    INDEX 01 97:00:00
  TRACK 19 AUDIO
    TITLE "The Scientist (Maarten de Jong Rework)"
    PERFORMER "Coldplay"
    INDEX 01 103:34:00
  TRACK 20 AUDIO
    TITLE "Sanctuary (Ben Gold Remix)"
    PERFORMER "Gareth Emery ft Lucy Saunders"
    INDEX 01 109:10:40
  TRACK 21 AUDIO
    TITLE "Reverie (Dash Berlin Remix)"
    PERFORMER "First State ft Sarah Howells"
    INDEX 01 115:08:00
Back to top
View user's profile Send private message
Display posts from previous:   
Post new topic   Reply to topic    Generation Trance Forum Index -> GT vs Project C (2010 - 2011) All times are GMT - 8 Hours
Page 1 of 1

 
Jump to:  
You cannot post new topics in this forum
You cannot reply to topics in this forum
You cannot edit your posts in this forum
You cannot delete your posts in this forum
You cannot vote in polls in this forum


Powered by phpBB © 2001, 2005 phpBB Group

Powered by CloudFlare