Generation Trance
Vote for GT  at The DJ List! Vote for GT and Project C at The DJ List! Vote for Project C  at The DJ List!
 FAQFAQ   SearchSearch   Chat   MemberlistMemberlist   UsergroupsUsergroups   RegisterRegister 
 ProfileProfile   Log in to check your private messagesLog in to check your private messages   Log inLog in 
VOT 045 January 2009 w/ LRCN
Goto page Previous  1, 2
 
Post new topic   Reply to topic    Generation Trance Forum Index -> GT vs Project C (2008 - 2009)
View previous topic :: View next topic  
Author Message
yuli768
Poster


Joined: 11 Oct 2004
Posts: 2

malaysia.gif
PostPosted: Sat May 16, 2009 10:32 am    Post subject: Reply with quote

i cant dl from mega ...do u have other links...thank you
Back to top
View user's profile Send private message Yahoo Messenger
looney4tunes
Poster


Joined: 17 Dec 2005
Posts: 4

india.gif
PostPosted: Sun May 17, 2009 6:02 am    Post subject: Reply with quote

One of the main reasons I get on the internet. Good scene jackoline.
_________________
You haven't lost at all.
For winning is no more than this: to rise each time you fall
Back to top
View user's profile Send private message
Bleedingears
Poster


Joined: 30 Sep 2006
Posts: 95
Location: Santa Clarita Ca.

usa.gif
PostPosted: Tue May 19, 2009 8:32 am    Post subject: Reply with quote

Great job again guys!
_________________
Destroying my hearing one ear at a time...
Back to top
View user's profile Send private message Yahoo Messenger
slickgino
Poster


Joined: 01 Oct 2004
Posts: 16

canada.gif
PostPosted: Tue May 19, 2009 2:34 pm    Post subject: Reply with quote

as always, thank u Smile
Back to top
View user's profile Send private message
DerschMR2
Poster


Joined: 01 Apr 2005
Posts: 419

canada.gif
PostPosted: Tue May 19, 2009 4:42 pm    Post subject: Reply with quote

loved all the new downloads at once...top notch set
thanks
Back to top
View user's profile Send private message
tranceaddict_cl
Poster


Joined: 27 Dec 2004
Posts: 285
Location: Punta Arenas, Chile

chile.gif
PostPosted: Fri May 29, 2009 3:49 pm    Post subject: cue Reply with quote

Wicked mix! I dunno wheter it´s because I was missing you guys so much or not, but just happens that VOT 44, 45 and 47 are, IMHO, your top mixes of all.

Cue fit VOT 045:

Performer "GT & Project C"
TITLE "Voices Of Trance 045 January 2008 AM Mix"
FILE "vot045" WAVE
TRACK 01 AUDIO
TITLE "AVB ft Jaren - Unforgivable (First State Smooth Mix)"
INDEX 01 00:00:00
TRACK 02 AUDIO
TITLE "Dennis de Laat - Every Breath (Original Mix)"
INDEX 01 09:06:40
TRACK 03 AUDIO
TITLE "Alex Kunnari - Breathe In (Heikki L & Alex Kunnari Remix)"
INDEX 01 15:04:42
TRACK 04 AUDIO
TITLE "Oceanlab - Breaking Ties (Jaytech & James Grant Remix)"
INDEX 01 20:51:31
TRACK 05 AUDIO
TITLE "Dave Graham ft Cat Martin - Love Always Fades (Original Mix)"
INDEX 01 25:46:46
TRACK 06 AUDIO
TITLE "Myon & Shane 54 ft Carrie Skipper - Vampire (Gareth Emerys Garuda Remix)"
INDEX 01 32:10:24
TRACK 07 AUDIO
TITLE "Kenneth Thomas ft Betsy Larkin - Stronger Creature (Kenneth Thomas Mix)"
INDEX 01 38:52:34
TRACK 08 AUDIO
TITLE "Dfolt - I Come Running (Tydi Remix)"
INDEX 01 47:04:68
TRACK 09 AUDIO
TITLE "Mr Sam ft Claud9 - Cygnes"
INDEX 01 51:45:30
TRACK 10 AUDIO
TITLE "Kaskade - Step One Two (Laurent Wolf Club Mix)"
INDEX 01 57:06:30
Back to top
View user's profile Send private message Send e-mail
IanC
Poster


Joined: 11 Mar 2007
Posts: 15

uk.gif
PostPosted: Thu Jun 11, 2009 12:07 pm    Post subject: Reply with quote

LRCN wrote:
you can get my guest mix here: ...


Yet another one I missed at the time. Sad

LRCN, do you still have this mix available for download? I notice that you're redoing your site so the link is not working. Wink

If someone can hook me up, I am willing to mirror this plus many others on a fast server.
Back to top
View user's profile Send private message Visit poster's website
LRCN
Poopy Eye


Joined: 12 Aug 2004
Posts: 369

usa.gif
PostPosted: Fri Jun 12, 2009 11:31 pm    Post subject: Reply with quote

IanC wrote:
LRCN wrote:
you can get my guest mix here: ...


Yet another one I missed at the time. Sad

LRCN, do you still have this mix available for download? I notice that you're redoing your site so the link is not working. Wink

If someone can hook me up, I am willing to mirror this plus many others on a fast server.

I'll post a link here tomorrow. Wink
_________________
stuff @ http://www.djlrcn.com
Back to top
View user's profile Send private message Visit poster's website AIM Address
IanC
Poster


Joined: 11 Mar 2007
Posts: 15

uk.gif
PostPosted: Sat Jun 13, 2009 2:05 am    Post subject: Reply with quote

LRCN wrote:
IanC wrote:
LRCN wrote:
you can get my guest mix here: ...


Yet another one I missed at the time. Sad

LRCN, do you still have this mix available for download? I notice that you're redoing your site so the link is not working. Wink

If someone can hook me up, I am willing to mirror this plus many others on a fast server.

I'll post a link here tomorrow. Wink


That's very kind of you, thanks! Smile
Back to top
View user's profile Send private message Visit poster's website
LRCN
Poopy Eye


Joined: 12 Aug 2004
Posts: 369

usa.gif
PostPosted: Sat Jun 13, 2009 7:48 pm    Post subject: Reply with quote

here you go! http://www.djlrcn.com/lrcnfrm/viewtopic.php?f=7&t=1626
_________________
stuff @ http://www.djlrcn.com
Back to top
View user's profile Send private message Visit poster's website AIM Address
Wizbit
Poster


Joined: 23 Oct 2004
Posts: 2
Location: Nottingham, UK

uk.gif
PostPosted: Thu Oct 22, 2009 12:52 am    Post subject: Reply with quote

I know this is a bit old now, but the CUE sheet info has the wrong year in it! Smile
Back to top
View user's profile Send private message MSN Messenger
Aki_Scorpion
Poster


Joined: 30 Sep 2004
Posts: 6
Location: Moscow

russia.gif
PostPosted: Mon Feb 01, 2010 11:24 pm    Post subject: Reply with quote

[quote="LRCN"]here you go! [/quote]

404 =((( can You update link? PLEEEASE!!!
Back to top
View user's profile Send private message
smarty
Poster


Joined: 04 Mar 2005
Posts: 4

blank.gif
PostPosted: Mon May 10, 2010 1:11 pm    Post subject: Reply with quote

Awesome Thanksss .. after 2 years !! ..damn where was i!!
Back to top
View user's profile Send private message
twinax
Poster


Joined: 03 Dec 2012
Posts: 2
Location: London

uk.gif
PostPosted: Fri Jul 21, 2017 12:17 am    Post subject: Re: VOT 045 January 2009 w/ LRCN Reply with quote

Project C wrote:
Sorry for the delay and its not torrented. We have been really busy so here's a megaupload link for now. Thank you for your support.

VOT 045 (January 2009)

01. AVB ft Jaren - Unforgivable (First State Smooth Mix)
02. Dennis de Laat - Every Breath (Original Mix)
03. Alex Kunnari - Breathe In (Heikki L & Alex Kunnari Remix)
04. Oceanlab - Breaking Ties (Jaytech & James Grant Remix)
05. Dave Graham ft Cat Martin - Love Always Fades (Original Mix)
06. Myon & Shane 54 ft Carrie Skipper - Vampire (Gareth Emerys Garuda Remix)
07. Kenneth Thomas ft Betsy Larkin - Stronger Creature (Kenneth Thomas Mix)
08. Dfolt - I Come Running (Tydi Remix)
09. Mr Sam ft Claud9 - Cygnes
10. Kaskade - Step One Two (Laurent Wolf Club Mix)



Hello from the FUTURE where RAPIDSHARE is dead ^)^

We, or some of us are still missing this set, so if anyone can please share is somewhere?! ^_^
Back to top
View user's profile Send private message
Display posts from previous:   
Post new topic   Reply to topic    Generation Trance Forum Index -> GT vs Project C (2008 - 2009) All times are GMT - 8 Hours
Goto page Previous  1, 2
Page 2 of 2

 
Jump to:  
You cannot post new topics in this forum
You cannot reply to topics in this forum
You cannot edit your posts in this forum
You cannot delete your posts in this forum
You cannot vote in polls in this forum


Powered by phpBB © 2001, 2005 phpBB Group

Powered by CloudFlare