Generation Trance
Vote for GT  at The DJ List! Vote for GT and Project C at The DJ List! Vote for Project C  at The DJ List!
 FAQFAQ   SearchSearch   Chat   MemberlistMemberlist   UsergroupsUsergroups   RegisterRegister 
 ProfileProfile   Log in to check your private messagesLog in to check your private messages   Log inLog in 
VOT 115 November 2014

 
Post new topic   Reply to topic    Generation Trance Forum Index -> GT vs Project C (2012 - 2014)
View previous topic :: View next topic  

Do you like music?
Yes
100%
 100%  [ 8 ]
No
0%
 0%  [ 0 ]
Maybe
0%
 0%  [ 0 ]
Total Votes : 8

Author Message
djGT
Da Man


Joined: 22 Jul 2004
Posts: 6610
Location: The OC

usa.gif
PostPosted: Mon Nov 17, 2014 1:48 am    Post subject: VOT 115 November 2014 Reply with quote



Click here to join the event on facebook!!!

Check out our next show for 2 hours of choons!!!

When :: Tuesday, November 18, 2014 @ 2PM-4PM US EST / 11AM-1PM US PST, CONVERT TIME.
Where :: http://di.fm/vocaltrance/


1st & 2nd Hour - GT vs Project C

01. Aron Scott & Gael feat Samantha Clark - Away (Extended Mix)
02. Aurosonic & Frainbreeze & Katty Heath - All I Need (Club Mix)
03. DJ Shog - DNA (Ddei & Estate Remix)
04. Justin Oh feat Jonny Rose - City Lights (Gal Abutbul Remix)
05. Kyau & Albert - A Night Like This (Ronski Speed Remix)
06. Orjan Nilsen & Jonathan Mendelsohn - Apart (Mike Shiver Remix)
07. Axis - Arrival (Original Mix)
08. Beat Service & Anna Criado - So Much Of Me Is You (Original Mix)
09. Cold Rush & Danny Claire - Gravity (Original Mix)
10. Dart Rayne & Yura Moonlight - Athena (Original Mix)
11. BT & Fractal Feat Jes - Letting Go (GT vs Project C vs Antillas & Dankan Dubby Poo)
12. Kris Maydak & Aneym - Cross The Line (Denis Sender Remix)
13. Menno De Jong & Stereojackers & Mark Loverush & Shelly Harland - Connected (Club Mix)
14. Lange & Betsie Larkin - Insatiable (Sean Tyas Remix)
15. Adam Szabo & Willem de Roo - Medusa (Original Mix)
16. Ferry Tayle feat Erica Curran - Rescue Me (Original Mix)
17. Paul Vinitsky & Fisher - One Heart (Souhail Semlali & Paul Vinitsky Remix)
18. Sou Kanai feat Claire Willis - Stay (Original Mix)
19. Hazem Beltagui feat Rebecca Louise Burch - Lost Again (Ian Standerwick Remix)
20. Ben Nicky feat Chloe Stamp - Brave Heart (Original Mix)
21. Another World feat Stephanie Kay - The Last Call (Original Mix)
22. Simon Pitt & Tiff Lacey - Tears In Rain (ReOrder Remix)


*************************************************************
Please use the bittorrent downloads, as they will be MUCH MUCH faster, and they save bandwidth
Click here to download the mix and please leave a comment.

Remember you need to install bit torrent to download. ENJOY EVERYONE! Twisted Evil


HTTP DOWNLOADS: Try a different server if one is too slow.

MIRROR #1:
Download MP3 (Right-click -> Save-Link-As)
Download CUE (Right-click -> Save-Link-As)
_________________
VOT 149 (September 2017) + Rene Ablaze
Voices Of Summer (Dreamer + Dreaming)

Mixcloud :: Facebook :: Twitter :: MySpace :: TRACKER - Please help seed the torrents, especially those with zero seeders!


Last edited by djGT on Wed Nov 19, 2014 5:48 pm; edited 3 times in total
Back to top
View user's profile Send private message Visit poster's website AIM Address
bardman14
Poster


Joined: 19 Jan 2007
Posts: 10

usa.gif
PostPosted: Tue Nov 18, 2014 1:23 pm    Post subject: Reply with quote

Great show guys as always
Back to top
View user's profile Send private message
tuna
Poster


Joined: 26 Apr 2010
Posts: 9
Location: houston

usa.gif
PostPosted: Thu Nov 20, 2014 5:58 am    Post subject: Reply with quote

Thanks for the mix Very Happy
Back to top
View user's profile Send private message
Doctor Bob
Da Fan


Joined: 16 Jan 2005
Posts: 1098
Location: Holland

netherlands.gif
PostPosted: Thu Nov 20, 2014 1:37 pm    Post subject: Reply with quote

Sorry guys, I was too busy, that I Embarassed missed the first hour.
Thanks for sharing. Wink
_________________
too young to be old



GT vs Project C LIVE @ Holland??
Back to top
View user's profile Send private message Send e-mail
T800
Poster


Joined: 23 Nov 2004
Posts: 294
Location: Belgium

belgium.gif
PostPosted: Mon Nov 24, 2014 12:40 pm    Post subject: Reply with quote

Thanks for sharing and great mix btw Very Happy
Back to top
View user's profile Send private message
oakie70
Poster


Joined: 17 Oct 2004
Posts: 145
Location: UTAH

usa.gif
PostPosted: Thu Dec 11, 2014 8:33 pm    Post subject: Reply with quote

back in the mix! ill dl now! not bit soo ill have to use direct
_________________
----------------> <-----------------------


AKA DJ Shnitz
Back to top
View user's profile Send private message Send e-mail
BadBob
Poster


Joined: 17 Nov 2004
Posts: 65
Location: Fly Over Country

seychelles.gif
PostPosted: Thu Jan 15, 2015 11:55 pm    Post subject: Reply with quote

Been away too long
_________________
Where am I going? And why am I in this handbasket?

BadBob
Back to top
View user's profile Send private message
Bud_
Poster


Joined: 31 Jul 2007
Posts: 23

blank.gif
PostPosted: Wed Feb 25, 2015 5:56 am    Post subject: Reply with quote

Delicious, thank you.
Back to top
View user's profile Send private message
skippingrock
Poster


Joined: 22 Sep 2004
Posts: 26
Location: a hop on the ferry

canada.gif
PostPosted: Thu Mar 05, 2015 10:55 am    Post subject: Re: VOT 115 November 2014 CUE file cannot download Reply with quote

djGT wrote:
Download CUE (Right-click -> Save-Link-As)


Hi, the cue file download doesn't seem to be working.

I get a request to log-in to the server before I can download.

Message from the server wrote:
To view this page, you must log in to this area on nanifm.com:80:


Could this get reposted?

Cheers!
_________________
----------------
this signature is funny... read it again.
Back to top
View user's profile Send private message Visit poster's website
Bud_
Poster


Joined: 31 Jul 2007
Posts: 23

blank.gif
PostPosted: Sun Mar 08, 2015 9:17 am    Post subject: Re: VOT 115 November 2014 CUE file cannot download Reply with quote

skippingrock wrote:
Could this get reposted?Cheers!

I try to put it here inline:

Performer "GT vs Project C"
TITLE "Voices Of Trance 115 (November 2014)"
FILE "01_GT_vs_Project_C_-_Voices_Of_Trance_115_(November_2014).mp3" MP3
TRACK 01 AUDIO
TITLE "Aron Scott & Gael feat Samantha Clark - Away (Extended Mix)"
INDEX 01 00:00:00
TRACK 02 AUDIO
TITLE "Aurosonic & Frainbreeze & Katty Heath - All I Need (Club Mix)"
INDEX 01 05:45:00
TRACK 03 AUDIO
TITLE "DJ Shog - DNA (Ddei & Estate Remix)"
INDEX 01 11:16:00
TRACK 04 AUDIO
TITLE "Justin Oh feat Jonny Rose - City Lights (Gal Abutbul Remix)"
INDEX 01 16:04:00
TRACK 05 AUDIO
TITLE "Kyau & Albert - A Night Like This (Ronski Speed Remix)"
INDEX 01 20:52:00
TRACK 06 AUDIO
TITLE "Orjan Nilsen & Jonathan Mendelsohn - Apart (Mike Shiver Remix)"
INDEX 01 25:55:00
TRACK 07 AUDIO
TITLE "Axis - Arrival (Original Mix)"
INDEX 01 31:32:00
TRACK 08 AUDIO
TITLE "Beat Service & Anna Criado - So Much Of Me Is You (Original Mix)"
INDEX 01 37:48:00
TRACK 09 AUDIO
TITLE "Cold Rush & Danny Claire - Gravity (Original Mix)"
INDEX 01 42:58:00
TRACK 10 AUDIO
TITLE "Dart Rayne & Yura Moonlight - Athena (Original Mix)"
INDEX 01 49:50:00
TRACK 11 AUDIO
TITLE "BT & Fractal Feat Jes - Letting Go (GT vs Project C vs Antillas & Dankan Dubby Poo)"
INDEX 01 54:50:00
TRACK 12 AUDIO
TITLE "Kris Maydak & Aneym - Cross The Line (Denis Sender Remix)"
INDEX 01 59:21:00
TRACK 13 AUDIO
TITLE "Menno De Jong & Stereojackers & Mark Loverush & Shelly Harland - Connected (Club Mix)"
INDEX 01 65:39:00
TRACK 14 AUDIO
TITLE "Lange & Betsie Larkin - Insatiable (Sean Tyas Remix)"
INDEX 01 70:28:00
TRACK 15 AUDIO
TITLE "Adam Szabo & Willem de Roo - Medusa (Original Mix)"
INDEX 01 75:42:00
TRACK 16 AUDIO
TITLE "Ferry Tayle feat Erica Curran - Rescue Me (Original Mix)"
INDEX 01 81:14:00
TRACK 17 AUDIO
TITLE "Paul Vinitsky & Fisher - One Heart (Souhail Semlali & Paul Vinitsky Remix)"
INDEX 01 88:04:00
TRACK 18 AUDIO
TITLE "Sou Kanai feat Claire Willis - Stay (Original Mix)"
INDEX 01 93:27:00
TRACK 19 AUDIO
TITLE "Hazem Beltagui feat Rebecca Louise Burch - Lost Again (Ian Standerwick Remix)"
INDEX 01 99:31:00
TRACK 20 AUDIO
TITLE "Ben Nicky feat Chloe Stamp - Brave Heart (Original Mix)"
INDEX 01 105:29:00
TRACK 21 AUDIO
TITLE "Another World feat Stephanie Kay - The Last Call (Original Mix)"
INDEX 01 111:46:00
TRACK 22 AUDIO
TITLE "Simon Pitt & Tiff Lacey - Tears In Rain (ReOrder Remix)"
INDEX 01 118:18:00
Back to top
View user's profile Send private message
skippingrock
Poster


Joined: 22 Sep 2004
Posts: 26
Location: a hop on the ferry

canada.gif
PostPosted: Sun Mar 08, 2015 4:37 pm    Post subject: Re: VOT 115 November 2014 CUE file cannot download Reply with quote

Bud_ wrote:
skippingrock wrote:
Could this get reposted?Cheers!

I try to put it here inline:


Awesome! thanks! Yes, I knew what I had to do in order to get it saved as a proper .cue file.

Thanks again.
_________________
----------------
this signature is funny... read it again.
Back to top
View user's profile Send private message Visit poster's website
Display posts from previous:   
Post new topic   Reply to topic    Generation Trance Forum Index -> GT vs Project C (2012 - 2014) All times are GMT - 8 Hours
Page 1 of 1

 
Jump to:  
You cannot post new topics in this forum
You cannot reply to topics in this forum
You cannot edit your posts in this forum
You cannot delete your posts in this forum
You cannot vote in polls in this forum


Powered by phpBB © 2001, 2005 phpBB Group

Powered by CloudFlare