Generation Trance
Vote for GT  at The DJ List! Vote for GT and Project C at The DJ List! Vote for Project C  at The DJ List!
 FAQFAQ   SearchSearch   Chat   MemberlistMemberlist   UsergroupsUsergroups   RegisterRegister 
 ProfileProfile   Log in to check your private messagesLog in to check your private messages   Log inLog in 
dj GT - gEnEration trancE 2002 (Vol 1)
Goto page Previous  1, 2, 3
 
Post new topic   Reply to topic    Generation Trance Forum Index -> GT vs Project C (past - 2005)
View previous topic :: View next topic  

Rate this mix!
Ownage!
98%
 98%  [ 71 ]
Poopage!
1%
 1%  [ 1 ]
Total Votes : 72

Author Message
djGT
Da Man


Joined: 22 Jul 2004
Posts: 6614
Location: The OC

usa.gif
PostPosted: Thu Nov 03, 2005 11:54 pm    Post subject: Reply with quote

yew wrote:
can someone upload it again? maybe on www.megaupload.com where they don't have a download limit or expiration date.

thanks

Mix is now hosted on megaupload, ENJOY! Twisted Evil

djGT wrote:
HTTP DOWNLOADS:
Click here to download from MEGAUPLOAD!
Download CUE: Right-mouse click and select "Save Target As"!

_________________
Voices Of Autumn (Forbidden + Memories)
VOT 150 (October 2017) + Serjey Andre Kul

Mixcloud :: Facebook :: Twitter :: MySpace :: TRACKER - Please help seed the torrents, especially those with zero seeders!
Back to top
View user's profile Send private message Visit poster's website AIM Address
yew
Poster


Joined: 30 Oct 2005
Posts: 60

blank.gif
PostPosted: Sat Nov 05, 2005 11:14 pm    Post subject: Reply with quote

btw. this cue sheet contains some errors. The name of the CD is wrong and the link to the mp3 files is also not correct...not too hard to fix, but some people might get confused Smile

here is the correct one:

Quote:
PERFORMER "dj GT"
TITLE "Generation Trance 2002 - Vol 1"
FILE "dj GT - Generation Trance 2002 - Vol 1.mp3" MP3
TRACK 01 AUDIO
TITLE "Riva - Time Is The Healer (Armin van Buuren Remix)"
FLAGS DCP
INDEX 01 00:00:00
TRACK 02 AUDIO
TITLE "En Motion - Getting Away With It (Thrillseekers Vocal Remix)"
FLAGS DCP
INDEX 01 07:34:00
TRACK 03 AUDIO
TITLE "Oceanlab feat. Justine Suissa - Sky Falls Down (Original Mix)"
FLAGS DCP
INDEX 01 13:57:00
TRACK 04 AUDIO
TITLE "The Mystery - All I Ever Wanted"
FLAGS DCP
INDEX 01 20:00:00
TRACK 05 AUDIO
TITLE "The Thrillseekers - Dreaming Of You"
FLAGS DCP
INDEX 01 26:09:50
TRACK 06 AUDIO
TITLE "Aquanuts - Deep Sea"
FLAGS DCP
INDEX 01 32:26:00
TRACK 07 AUDIO
TITLE "Perpetuous Dreamer - Dub.wav"
FLAGS DCP
INDEX 01 38:29:40
TRACK 08 AUDIO
TITLE "4 Strings - Diving (Vocal Remix)"
FLAGS DCP
INDEX 01 44:10:40
TRACK 09 AUDIO
TITLE "4 Strings - Into The Night (Coast 2 Coast Vocal Remix)"
FLAGS DCP
INDEX 01 50:14:24
TRACK 10 AUDIO
TITLE "Ian Van Dahl - Reason (Lange Remix)"
FLAGS DCP
INDEX 01 55:48:60
TRACK 11 AUDIO
TITLE "Hemstock & Jennings - Mirage (Lange Remix)"
FLAGS DCP
INDEX 01 61:37:45
TRACK 12 AUDIO
TITLE "Paul Oakenfold - Southern Sun (Gabriel and Dresden Unplugged Remix)"
FLAGS DCP
INDEX 01 69:48:32
Back to top
View user's profile Send private message
djGT
Da Man


Joined: 22 Jul 2004
Posts: 6614
Location: The OC

usa.gif
PostPosted: Sun Nov 06, 2005 12:14 am    Post subject: Reply with quote

thanks for the fix! Razz
_________________
Voices Of Autumn (Forbidden + Memories)
VOT 150 (October 2017) + Serjey Andre Kul

Mixcloud :: Facebook :: Twitter :: MySpace :: TRACKER - Please help seed the torrents, especially those with zero seeders!
Back to top
View user's profile Send private message Visit poster's website AIM Address
Demarest
Poster


Joined: 26 Aug 2005
Posts: 21

blank.gif
PostPosted: Tue Nov 08, 2005 7:20 pm    Post subject: Reply with quote

Some of the best songs with the best mixmasters... win!
Back to top
View user's profile Send private message
spirit_lives_in_trance
Poster


Joined: 16 Apr 2006
Posts: 41
Location: cambridge-uk

uk.gif
PostPosted: Mon Apr 17, 2006 3:41 pm    Post subject: Reply with quote

do you think we can have an update

hey looks like im the man on the job to seeing what needs updating hehe


how much you paying??? hehe
_________________
the time is coming
Back to top
View user's profile Send private message
Chucky
Poster


Joined: 10 Oct 2004
Posts: 4

switzerland.gif
PostPosted: Mon Sep 11, 2006 10:24 am    Post subject: Reply with quote

djGT wrote:
HTTP DOWNLOADS:
Click here to download from MEGAUPLOAD!
Download CUE: Right-mouse click and select "Save Target As"!



This file has expired due to inactivity. Sad

Can somebody reupload the mix? Can't wait hearing it!
Back to top
View user's profile Send private message
djGT
Da Man


Joined: 22 Jul 2004
Posts: 6614
Location: The OC

usa.gif
PostPosted: Tue Sep 12, 2006 9:48 pm    Post subject: Reply with quote

Chucky wrote:
Can somebody reupload the mix? Can't wait hearing it!

try here for now, until we get our server back! Wink

http://forums.generationtrance.com/viewtopic.php?t=3009
_________________
Voices Of Autumn (Forbidden + Memories)
VOT 150 (October 2017) + Serjey Andre Kul

Mixcloud :: Facebook :: Twitter :: MySpace :: TRACKER - Please help seed the torrents, especially those with zero seeders!
Back to top
View user's profile Send private message Visit poster's website AIM Address
Cohrugbaw
Poster


Joined: 16 Sep 2006
Posts: 1
Location: USA

PostPosted: Sat Sep 16, 2006 7:22 am    Post subject: Reply with quote

Where you get it???
_________________
Hartford Restaurant
Back to top
View user's profile Send private message Visit poster's website
haluciN8e
Poster


Joined: 16 Sep 2005
Posts: 17
Location: Las Vegas area

usa.gif
PostPosted: Sun May 17, 2009 8:25 am    Post subject: Reply with quote

Thanks!
Back to top
View user's profile Send private message
drivetheory
Poster


Joined: 10 May 2011
Posts: 2

blank.gif
PostPosted: Mon Aug 12, 2013 8:54 am    Post subject: Reply with quote

any chance of an updated download URL for this set?

the filefront/gamefront URLs listed on the other page do not work anymore
Back to top
View user's profile Send private message
fotosash
Poster


Joined: 20 Feb 2007
Posts: 3

blank.gif
PostPosted: Tue Sep 24, 2013 11:47 am    Post subject: Please load your mixes Reply with quote

Hi guys - can you please upload your mixes from 2005 - 2011 and post the links please. That would be great.

Regards
Back to top
View user's profile Send private message
Display posts from previous:   
Post new topic   Reply to topic    Generation Trance Forum Index -> GT vs Project C (past - 2005) All times are GMT - 8 Hours
Goto page Previous  1, 2, 3
Page 3 of 3

 
Jump to:  
You cannot post new topics in this forum
You cannot reply to topics in this forum
You cannot edit your posts in this forum
You cannot delete your posts in this forum
You cannot vote in polls in this forum


Powered by phpBB © 2001, 2005 phpBB Group

Powered by CloudFlare