Generation Trance
Vote for GT  at The DJ List! Vote for GT and Project C at The DJ List! Vote for Project C  at The DJ List!
 FAQFAQ   SearchSearch   Chat   MemberlistMemberlist   UsergroupsUsergroups   RegisterRegister 
 ProfileProfile   Log in to check your private messagesLog in to check your private messages   Log inLog in 
VOT 092 December 2012

 
Post new topic   Reply to topic    Generation Trance Forum Index -> GT vs Project C (2012 - 2014)
View previous topic :: View next topic  

Do you like music?
Yes
100%
 100%  [ 1 ]
No
0%
 0%  [ 0 ]
Total Votes : 1

Author Message
djGT
Da Man


Joined: 22 Jul 2004
Posts: 6619
Location: The OC

usa.gif
PostPosted: Fri Jun 21, 2013 8:31 am    Post subject: VOT 092 December 2012 Reply with quote

Check out our mix for VOT 092 December 2012 show!

1st & 2nd Hour - GT vs Project C

01. Nic Chagall & Duderstadt ft Relyk - Alone With You (Original Mix)
02. Above & Beyond - On My Way To Heaven (Tomas Heredia Sunrise Mix)
03. Kaskade feat. Skylar Grey - Room For Happiness (Above & Beyond Remix)
04. Depeche Mode - Enjoy The Silence (SHato & Paul Rockseek Bootleg)
05. Kyau & Albert - Another Time (San Ko Remix)
06. Roger Sanchez - Another Chance (Maison & Dragen Miami 2012 Bootleg Remix)
07. Cosmic Gate & Emma Hewitt - Calm Down (Ost & Meyer Remix)
08. Above & Beyond ft Zoe Johnston - Alchemy (Above & Beyond Club Mix)
09. Alexander Popov ft Kyler England - My World (Original Mix)
10. Markus Schulz ft Ana Diaz - Nothing Without Me (Antillas & Dankann Club Mix)
11. Cerf, Mitiska, & Jaren with Rank 1 - Witness (Chris Reece Remix)
12. Matt Darey ft Leah - Hold Your Breath (David Forbes Remix)
13. Jes & Andy Duguid - Before You Go (Pedro del Mar & Doublev Remix)
14. C-Systems & Jo Micali ft Hanna Finsen - Love Is Strong (Estiva Remix)
15. Fast Distance feat. Cami - Come Back Home (Original Mix)
16. Susana & Ernesto vs Bastian with Wezz Devall - Brave (Original Mix)
17. Dennis Sheperd ft Molly Bancroft - Silence (Club Mix)
18. Kyau & Albert - Made of Sun (Stoneface & Terminal Remix)
19. Delerium ft Sarah Mclachlan - Silence (W & W vs Jonas Stenberg Remix)
20. Emma Hewitt - Rewind (Mikkas Remix)
21. Heatbeat - Chow Mein (Original Mix)


*************************************************************
HTTP DOWNLOADS:

MIRROR #1:
1st & 2nd Hour: Download MP3
_________________
Voices Of Winter 2017 (Strong + Gift)
VOT 153 (January 2018) + DJ Moo

Mixcloud :: Facebook :: Twitter :: MySpace :: TRACKER - Please help seed the torrents, especially those with zero seeders!
Back to top
View user's profile Send private message Visit poster's website AIM Address
aharami
Poster


Joined: 13 Nov 2004
Posts: 13

blank.gif
PostPosted: Fri Dec 08, 2017 9:51 pm    Post subject: Reply with quote

cue sheet, if anyone is interested
Code:
Performer "GT vs Project C"
TITLE "Voices Of Autumn 2013 (Sadness)"
FILE "01_GT_vs_Project_C_-_Voices_Of_Trance_092_(December_2012).mp3" MP3
  TRACK 01 AUDIO
    TITLE "Nic Chagall & Duderstadt ft Relyk - Alone With You (Original Mix)"
    INDEX 01 00:00:00
  TRACK 02 AUDIO
    TITLE "Above & Beyond - On My Way To Heaven (Tomas Heredia Sunrise Mix)"
    INDEX 01 07:12:00
  TRACK 03 AUDIO
    TITLE "Kaskade feat. Skylar Grey - Room For Happiness (Above & Beyond Remix)"
    INDEX 01 14:47:00
  TRACK 04 AUDIO
    TITLE "Depeche Mode - Enjoy The Silence (SHato & Paul Rockseek Bootleg)"
    INDEX 01 19:25:00
  TRACK 05 AUDIO
    TITLE "Kyau & Albert - Another Time (San Ko Remix)"
    INDEX 01 24:50:00
  TRACK 06 AUDIO
    TITLE "Roger Sanchez - Another Chance (Maison & Dragen Miami 2012 Bootleg Remix)"
    INDEX 01 30:09:00
  TRACK 07 AUDIO
    TITLE "Cosmic Gate & Emma Hewitt - Calm Down (Ost & Meyer Remix)"
    INDEX 01 35:34:00
  TRACK 08 AUDIO
    TITLE "Above & Beyond ft Zoe Johnston - Alchemy (Above & Beyond Club Mix)"
    INDEX 01 40:40:00
  TRACK 09 AUDIO
    TITLE "Alexander Popov ft Kyler England - My World (Original Mix)"
    INDEX 01 46:35:00
  TRACK 10 AUDIO
    TITLE "Markus Schulz ft Ana Diaz - Nothing Without Me (Antillas & Dankann Club Mix)"
    INDEX 01 51:50:00
  TRACK 11 AUDIO
    TITLE "Cerf, Mitiska, & Jaren with Rank 1 - Witness (Chris Reece Remix)"
    INDEX 01 57:00:00
  TRACK 12 AUDIO
    TITLE "Matt Darey ft Leah - Hold Your Breath (David Forbes Remix)"
    INDEX 01 62:12:00
  TRACK 13 AUDIO
    TITLE "Jes & Andy Duguid - Before You Go (Pedro del Mar & Doublev Remix)"
    INDEX 01 68:48:00
  TRACK 14 AUDIO
    TITLE "C-Systems & Jo Micali ft Hanna Finsen - Love Is Strong (Estiva Remix)"
    INDEX 01 74:40:00
  TRACK 15 AUDIO
    TITLE "Fast Distance feat. Cami - Come Back Home (Original Mix) "
    INDEX 01 80:05:00   
  TRACK 16 AUDIO
    TITLE "Susana & Ernesto vs Bastian with Wezz Devall - Brave (Original Mix)"
    INDEX 01 85:54:00   
  TRACK 17 AUDIO
    TITLE "Dennis Sheperd ft Molly Bancroft - Silence (Club Mix)"
    INDEX 01 91:10:00
  TRACK 18 AUDIO
    TITLE "Kyau & Albert - Made of Sun (Stoneface & Terminal Remix)"
    INDEX 01 97:00:00
  TRACK 19 AUDIO
    TITLE "Delerium ft Sarah Mclachlan - Silence (W & W vs Jonas Stenberg Remix)"
    INDEX 01 102:50:00
  TRACK 20 AUDIO
    TITLE "Emma Hewitt - Rewind (Mikkas Remix)"
    INDEX 01 106:48:00
  TRACK 21 AUDIO
    TITLE "Heatbeat - Chow Mein (Original Mix)"
    INDEX 01 111:55:00
Back to top
View user's profile Send private message
Display posts from previous:   
Post new topic   Reply to topic    Generation Trance Forum Index -> GT vs Project C (2012 - 2014) All times are GMT - 8 Hours
Page 1 of 1

 
Jump to:  
You cannot post new topics in this forum
You cannot reply to topics in this forum
You cannot edit your posts in this forum
You cannot delete your posts in this forum
You cannot vote in polls in this forum


Powered by phpBB © 2001, 2005 phpBB Group

Powered by CloudFlare